Скачать порно через торрент Latin Ass Factor 2 Латинский жопный фактор 2 UnionPeer.org бесплатно онлайн HD качество

Скачать новое порно 2015, 2014 новинки через торрент UnionPeer.org

Порно торрент бесплатно ЮнионПир.орг

Если у вас наблюдаются проблемы со скриншотами, переходом по ссылками, скачиванием торрентов - проблемы в блокировщике рекламы AdBlock. #хорошегоДня!


Статистика раздачи
Размер:  1.07 GB   |    Зарегистрирован:  4 года 2 месяца   |    .torrent скачан:  103 раза   |   
Раздают:  1  
   
Загрузка...
 
Автор Сообщение

Galfimbul

avatar Galfimbul


Latin Ass Factor 2 / Латинский жопный фактор 2 Год производства: 2009 г.
Жанр: Anal, Latina, Creampie, Tattoo, Fishnet
Продолжительность: 89 mins
Язык: Английский

Студия: pandemonium

В ролях: daisy marie, tiana lynn, megan martinez, emma, katlin

Описание: Oh those sweet asses! These girls have the Latin Ass Factor goin' on! These beautiful Latinas really like to get fucked hard and deep, and the more frantically you slam them, the juicier and wetter their little love holes get. Качество видео: DVDRip
Формат видео: AVI
Видео кодек: XviD
Аудио кодек: MP3
Format : AVI
Format/Info : Audio Video Interleave
File size : 219 MiB
Duration : 18mn 23s
Overall bit rate : 1 664 Kbps
Writing application : MEncoder 1.0rc1-4.1.2
Writing library : MPlayer

Video
ID : 0
Format : MPEG-4 Visual
Format profile : Advanced Simple@L5
Format settings, BVOP : Yes
Format settings, QPel : No
Format settings, GMC : No warppoints
Format settings, Matrix : Default (H.263)
Codec ID : XVID
Codec ID/Hint : XviD
Duration : 18mn 23s
Bit rate : 1 581 Kbps
Width : 640 pixels
Height : 480 pixels
Display aspect ratio : 4:3
Frame rate : 30.303 fps
Color space : YUV
Chroma subsampling : 4:2:0
Bit depth : 8 bits
Scan type : Progressive
Bits/(Pixel*Frame) : 0.170
Stream size : 208 MiB (95%)
Writing library : XviD 1.1.0 (UTC 2005-11-22)

Audio
ID : 1
Format : MPEG Audio
Format version : Version 1
Format profile : Layer 3
Mode : Joint stereo
Mode extension : MS Stereo
Codec ID : 55
Codec ID/Hint : MP3
Duration : 18mn 23s
Bit rate mode : Variable
Bit rate : 69.9 Kbps
Channel(s) : 2 channels
Sampling rate : 48.0 KHz
Stream size : 9.20 MiB (4%)
Alignment : Aligned on interleaves
Interleave, duration : 24 ms (0.73 video frame)
Interleave, preload duration : 455 ms


Трекер:  [ 04-Июн-2013 12:54 ]

  

Скачать .torrent

Размер .torrent файла 11 KB


Размер: 1.07 GB
Хэш (hash) релиза: a7cb6ca705c2c7d1cd0b7c2cec4b3963c7821a5b

bot

Топик был перенесен в форум Гонзо-фильмы

Перенес Galfimbul

Хотите добавить комментарий к записи скачать торрент Latin Ass Factor 2 Латинский жопный фактор 2

!Обратная связь