Скачать порно через торрент Teen Anal Virgins 2 Подростковые Анальные Девственницы 2 UnionPeer.org бесплатно онлайн HD качество

Скачать новое порно 2015, 2014 новинки через торрент UnionPeer.org

Порно торрент бесплатно ЮнионПир.орг

Если у вас наблюдаются проблемы со скриншотами, переходом по ссылками, скачиванием торрентов - проблемы в блокировщике рекламы AdBlock. #хорошегоДня!


Статистика раздачи
Размер:  1.16 GB   |    Зарегистрирован:  4 года 4 месяца   |    .torrent скачан:  105 раз   |   
Раздают:  1   Качают:  3  
   
Загрузка...
 
Автор Сообщение

Galfimbul

avatar Galfimbul


Teen Anal Virgins #2 / Подростковые Анальные Девственницы #2 (разбит на эпизоды)
Год производства: 2004 г.
Страна: США
Жанр: Anal, Legal Teen, Gonzo, Cream Pie, All Sex
Продолжительность: 2ч 17мин
Язык: Английский

Режиссер: Tyce Bune
Студия: Exquisite Pleasures

В ролях: Raven, Katrina, Nikki Nite, Sabre Moore, Noela Noel

Описание: Teen Anal Virgins #2 all doing their first ever anal scenes! Watch 5 Anal Cherries Get Popped! Real Virgins! Real Teens! Really Devirginized!

http://www.cduniverse.com/productinfo.asp?pid=6675601&style=ice

Качество видео: DVDRip
Формат видео: MP4
Видео кодек: H.264/AVC
Аудио кодек: AAC
Видео: MPEG4 Video (H264) 640x480
Аудио: AAC 22050Hz stereo 705kbps
Format : MPEG-4
Format profile : Base Media / Version 2
Codec ID : mp42
File size : 253 MiB
Duration : 29mn 16s
Overall bit rate : 1 208 Kbps
Encoded date : UTC 2009-11-16 04:04:47
Tagged date : UTC 2009-11-16 05:09:24
Writing application : HandBrake 0.9.3 2008112300

Video
ID : 1
Format : AVC
Format/Info : Advanced Video Codec
Format profile : High@L3.0
Format settings, CABAC : Yes
Format settings, ReFrames : 3 frames
Codec ID : avc1
Codec ID/Info : Advanced Video Coding
Duration : 29mn 15s
Bit rate mode : Variable
Bit rate : 1 136 Kbps
Width : 640 pixels
Height : 480 pixels
Display aspect ratio : 4:3
Frame rate mode : Variable
Frame rate : 29.970 fps
Minimum frame rate : 15.978 fps
Maximum frame rate : 30.000 fps
Color space : YUV
Chroma subsampling : 4:2:0
Bit depth : 8 bits
Scan type : Progressive
Bits/(Pixel*Frame) : 0.123
Stream size : 238 MiB (94%)
Writing library : x264 core 65
Encoding settings : cabac=1 / ref=3 / deblock=1:0:0 / analyse=0x3:0x133 / me=umh / subme=9 / psy_rd=1.0:1.0 / mixed_ref=1 / me_range=16 / chroma_me=1 / trellis=1 / 8x8dct=1 / cqm=0 / deadzone=21,11 / chroma_qp_offset=-4 / threads=12 / nr=150 / decimate=1 / mbaff=0 / bframes=6 / b_pyramid=1 / b_adapt=1 / b_bias=0 / direct=3 / wpredb=1 / keyint=30 / keyint_min=16 / scenecut=40(pre) / rc=2pass / bitrate=1136 / ratetol=1.0 / qcomp=0.60 / qpmin=10 / qpmax=51 / qpstep=4 / cplxblur=20.0 / qblur=0.5 / ip_ratio=1.40 / pb_ratio=1.30 / aq=1:1.00
Language : English
Encoded date : UTC 2009-11-16 04:04:47
Tagged date : UTC 2009-11-16 05:09:24
Color primaries : BT.601-6 525, BT.1358 525, BT.1700 NTSC, SMPTE 170M
Transfer characteristics : BT.709-5, BT.1361
Matrix coefficients : BT.601-6 525, BT.1358 525, BT.1700 NTSC, SMPTE 170M

Audio
ID : 2
Format : AAC
Format/Info : Advanced Audio Codec
Format version : Version 4
Format profile : LC
Format settings, SBR : Yes
Format settings, PS : No
Codec ID : 40
Duration : 29mn 16s
Bit rate mode : Variable
Bit rate : 67.9 Kbps
Maximum bit rate : 80.7 Kbps
Channel(s) : 2 channels
Channel positions : Front: L R
Sampling rate : 44.1 KHz
Stream size : 14.2 MiB (6%)
Encoded date : UTC 2009-11-16 04:04:47
Tagged date : UTC 2009-11-16 05:09:12
Не забываем говорить спасибо - вам не сложно, а мне приятно!

Трекер:  [ 02-Июн-2013 11:38 ]

  

Скачать .torrent

Размер .torrent файла 12 KB


Размер: 1.16 GB
Хэш (hash) релиза: bfcb00b4b2a730d1963f527e7a1e50e9a09c0b12

Торренты, похожие на Teen Anal Virgins 2 Подростковые Анальные Девственницы 2 скачать торрент

Форум Название Автор Размер S L Добавлен
Порно фильмы с сюжетом ·· Teen Anal Virgins 1-5 / Подростковые Анальные Девственницы 1,2,3,4,5 (Tyce Bune / Dusk 'Til Dawn) [2003-2005 г., Gonzo, Anal, Creampie, DVDRip] Split Scenes Galfimbul 65758007856.12 GB 1 1 1364044346

16:12

23-Мар-13

bot

Топик был перенесен в форум Гонзо-фильмы

Перенес Galfimbul

Хотите добавить комментарий к записи скачать торрент Teen Anal Virgins 2 Подростковые Анальные Девственницы 2

!Обратная связь