Скачать порно через торрент Ass Jazz 2 Анальный джаз 2 UnionPeer.org бесплатно онлайн HD качество

Скачать новое порно 2015, 2014 новинки через торрент UnionPeer.org

Порно торрент бесплатно ЮнионПир.орг

Если у вас наблюдаются проблемы со скриншотами, переходом по ссылками, скачиванием торрентов - проблемы в блокировщике рекламы AdBlock. #хорошегоДня!


Статистика раздачи
Размер:  1.8 GB   |    Зарегистрирован:  4 года 2 месяца   |    .torrent скачан:  89 раз   |   
Раздают:  1  
   
Загрузка...
 
Автор Сообщение

Galfimbul

avatar Galfimbul


Ass Jazz 2 / Анальный джаз 2
[b]Год производства: 2006
Страна: США
Жанр: All Sex Movies, Anal, Foreign, Oral, Gonzo, Hardcore
Язык: Английский
Режиссер: Jazz Duro
Студия: Evil Angel
Продолжительность: 2:57:54
Release from:
C
ossar[/b]
В ролях: Jazz Duro, Sara Lemos, Gabriella Asstryd, Jeana James, Myla, Dany Hess
Описание: Пять бразильских подруг скучали, скучали да и в порно попали! да не просто попали а на анал встряли!Блондинка Джена Джеймс такая скромная, что аж не стала смущаться босле глубокого сверления своего орального отверстия большим сверлом между ног!Да и макияж стоит подправить, а тут как назло закончился клеросил, и пришлось использовать то что рядом, так что залп такой девчушке в пользу!Сара Лемос и Габриелла Астрид такие милые! ведь они похожи на детей, но уже взрослых. которым не представляется отдых без игрушек, котрые резниновые и которые те спешат засунуть в свои красиво отфрезерованные отверстия.Да и куда без милых шалостей? как не потаскать за волосы друг друга несмотря на то что она лучшая подруга? Да и каблучок загнать в сладкий пердачок хорошая наука!
Дополнительно:
iafd.com
[b]cduniverse.com[/b]
Качество видео:DVDRip
Формат видео: AVI
Видео кодек: MPEG4(H264)
Аудио кодек: AAC
Видео: MPEG4 Video (H264) 640x480 29.10fps 1214kbps
Аудио: AAC 48000Hz stereo 216kbps
General
Complete name Ass Jazz 2.avi
Format : AVI
Format/Info : Audio Video Interleave
File size : 1.80 GiB
Duration : 2h 57mn
Overall bit rate : 1 445 Kbps

Video
ID : 0
Format : AVC
Format/Info : Advanced Video Codec
Format profile : Main@L3.0
Format settings, CABAC : Yes
Format settings, ReFrames : 2 frames
Codec ID : H264
Duration : 2h 57mn
Bit rate : 1 214 Kbps
Width : 640 pixels
Height : 480 pixels
Display aspect ratio : 4:3
Frame rate : 29.097 fps
Original frame rate : 29.970 fps
Color space : YUV
Chroma subsampling : 4:2:0
Bit depth : 8 bits
Scan type : Progressive
Bits/(Pixel*Frame) : 0.136
Stream size : 1.51 GiB (84%)

Audio
ID : 1
Format : AAC
Format/Info : Advanced Audio Codec
Format profile : LC
Codec ID : FF
Duration : 2h 57mn
Bit rate : 216 Kbps
Channel(s) : 2 channels
Channel positions : Front: L R
Sampling rate : 48.0 KHz
Compression mode : Lossy
Stream size : 275 MiB (15%)
Alignment : Split accross interleaves
Interleave, duration : 21 ms (0.62 video frame)
Interleave, preload duration : 554 ms
Title : xacti.wav
Ass Jazz 2.avi
General
Complete name : Ass Jazz 2.avi
Format : AVI
Format/Info : Audio Video Interleave
File size : 1.80 GiB
Duration : 2h 57mn
Overall bit rate : 1 445 Kbps
Video #0
ID : 0
Format : AVC
Format/Info : Advanced Video Codec
Format profile : Main@L3.0
Format settings, CABAC : Yes
Format settings, ReFrames : 2 frames
Codec ID : H264
Duration : 2h 57mn
Bit rate : 1 214 Kbps
Width : 640 pixels
Height : 480 pixels
Display aspect ratio : 4:3
Frame rate : 29.097 fps
Original frame rate : 29.970 fps
Color space : YUV
Chroma subsampling : 4:2:0
Bit depth : 8 bits
Scan type : Progressive
Bits/(Pixel*Frame) : 0.136
Stream size : 1.51 GiB (84%)
Audio #1
ID : 1
Format : AAC
Format/Info : Advanced Audio Codec
Format profile : LC
Codec ID : FF
Duration : 2h 57mn
Bit rate : 216 Kbps
Channel(s) : 2 channels
Channel positions : Front: L R
Sampling rate : 48.0 KHz
Compression mode : Lossy
Stream size : 275 MiB (15%)
Alignment : Split accross interleaves
Interleave, duration : 21 ms (0.62 video frame)
Interleave, preload duration : 554 ms
Title : xacti.wav


Трекер:  [ 02-Июн-2013 11:38 ]

  

Скачать .torrent

Размер .torrent файла 18 KB


Размер: 1.8 GB
Хэш (hash) релиза: fba1582f85d05e0a6cf223a3229aa194589a05d4

bot

Топик был перенесен в форум Гонзо-фильмы

Перенес Galfimbul

Хотите добавить комментарий к записи скачать торрент Ass Jazz 2 Анальный джаз 2

!Обратная связь