Скачать порно через торрент Angel Face С Ангельским Лицом UnionPeer.org бесплатно онлайн HD качество

Скачать новое порно 2015, 2014 новинки через торрент UnionPeer.org

Порно торрент бесплатно ЮнионПир.орг

Если у вас наблюдаются проблемы со скриншотами, переходом по ссылками, скачиванием торрентов - проблемы в блокировщике рекламы AdBlock. #хорошегоДня!


Статистика раздачи
Размер:  3.3 GB   |    Зарегистрирован:  4 года 2 месяца   |    .torrent скачан:  173 раза   |   
Раздают:  1  
   
Загрузка...
 
Автор Сообщение

Galfimbul

avatar Galfimbul


Angel Face

- С Ангельским Лицом -*Release Date: Aug 18, 2011*

(фильм разделён на сцены)
Год производства: 2011 г.
Страна: USA
Жанр: Gonzo, 18+ Teens, All Sex, Blowjob, Facial, Hardcore
Продолжительность: 01:33:15 (фильм)
00:54:57 (бонусы)Режиссер: Eddie Powell
Студия: Digital Sin
Язык: Английский[i]В ролях:
Actresses-
Kyleigh Ann (as Elaina Raye) [Bald]
Sasha Hall [Facial Bald]
Veronica Rodriguez [Facial Squirt]
Tabby (as Zoey Kush) [Facial Bald]

DVD Only- Bruce Venture</span></span>
[spoiler=\"[b]Альтернативный постер
\"]
[/spoiler]
Scene 1. Tabby, Danny Mountain
Scene 2. Veronica Rodriguez, Anthony Rosano
Scene 3. Sasha Hall, Richie
Scene 4. Kyleigh Ann, Chad Alva
DVD Bonus. Tia Cyrus, Bruce Venture
DVD Bonus. Lily Carter, Anthony Rosano
Behind the Scenes

Comments
Both Bonus Scenes are from She's So Cute 3
[i]Описание:

[spoiler=\"Доп. информация\"]
http://www.adultdvdemart.com/-/adult_dvd_product_info/filmid=DISN00362.html/-C1CF04DF-3304-4CF9-B1A7-CCB92802836C
http://www.iafd.com/title.rme/title=Angel+Face/year=2011/angel-face.htm
http://www.adultdvdempire.com/1582476/angel-face-porn-movies.html
[/spoiler]
Качество видео: DVDRip
Формат видео: AVI
Видео кодек: XViD
Аудио кодек: MP3
Видео: 3000 Kbps, 29.970 fps, 720*480 (or 853*480 / 16:9), XVID = XVID Mpeg-4
Аудио: 160 Kbps, 44100 Hz, 2 ch, 0x55 = MPEG Layer-3, VBR
[spoiler=\"MediaInfo\"]
Общее
Полное имя : Angel Face_AVI_Split Scenes\Angel Face_Sc.00_Title.avi
Формат : AVI
Формат/Информация : Audio Video Interleave
Размер файла : 38,0 Мбайт
Продолжительность : 1 м. 41 с.
Общий поток : 3159 Кбит/сек

Аудио
Идентификатор : 1
Формат : MPEG Audio
Версия формата : Version 1
Профиль формата : Layer 3
Идентификатор кодека : 55
Идентификатор кодека/Подсказка : MP3
Продолжительность : 1 м. 41 с.
Вид битрейта : Постоянный
Битрейт : 160 Кбит/сек
Каналы : 2 канала
Частота : 44,1 КГц
Метод сжатия : С потерями
Размер потока : 1,93 Мбайт (5%)
Выравнивание : Соединение по промежуткам
Продолжительность промежутка : 26 мс. (0,78 видеокадр)

Общее
Полное имя : Angel Face_AVI_Split Scenes\Angel Face_Sc.01_Zoey Kush.avi
Формат : AVI
Формат/Информация : Audio Video Interleave
Размер файла : 510 Мбайт
Продолжительность : 22 м.
Общий поток : 3180 Кбит/сек

Видео
Идентификатор : 0
Формат : MPEG-4 Visual
Идентификатор кодека : XVID
Идентификатор кодека/Подсказка : XviD
Продолжительность : 22 м.
Битрейт : 3001 Кбит/сек
Ширина : 720 пикс.
Высота : 480 пикс.
Соотношение сторон : 3:2
Частота кадров : 29,970 кадр/сек
Стандарт вещания : NTSC
Цветовое пространство : YUV
Подвыборка цветности : 4:2:0
Метод сжатия : С потерями
Бит/(Пиксели*Кадры) : 0.290
Размер потока : 481 Мбайт (94%)

Аудио
Идентификатор : 1
Формат : MPEG Audio
Идентификатор кодека : 55
Идентификатор кодека/Подсказка : MP3
Продолжительность : 22 м.
Битрейт : 160 Кбит/сек
Каналы : 2 канала
Частота : 44,1 КГц
Метод сжатия : С потерями
Размер потока : 25,6 Мбайт (5%)
Выравнивание : Соединение по промежуткам
Продолжительность промежутка : 26 мс. (0,78 видеокадр)

Общее
Полное имя : Angel Face_AVI_Split Scenes\Angel Face_Sc.02_Veronica Rodriguez.avi
Формат : AVI
Формат/Информация : Audio Video Interleave
Размер файла : 531 Мбайт
Продолжительность : 23 м.
Общий поток : 3179 Кбит/сек

Видео
Идентификатор : 0
Формат : MPEG-4 Visual
Идентификатор кодека : XVID
Идентификатор кодека/Подсказка : XviD
Продолжительность : 23 м.
Битрейт : 3001 Кбит/сек
Ширина : 720 пикс.
Высота : 480 пикс.
Соотношение сторон : 3:2
Частота кадров : 29,970 кадр/сек
Стандарт вещания : NTSC
Цветовое пространство : YUV
Подвыборка цветности : 4:2:0
Метод сжатия : С потерями
Бит/(Пиксели*Кадры) : 0.290
Размер потока : 501 Мбайт (94%)

Аудио
Идентификатор : 1
Формат : MPEG Audio
Идентификатор кодека : 55
Идентификатор кодека/Подсказка : MP3
Продолжительность : 23 м.
Битрейт : 160 Кбит/сек
Каналы : 2 канала
Частота : 44,1 КГц
Метод сжатия : С потерями
Размер потока : 26,7 Мбайт (5%)
Выравнивание : Соединение по промежуткам
Продолжительность промежутка : 26 мс. (0,78 видеокадр)

Общее
Полное имя : Angel Face_AVI_Split Scenes\Angel Face_Sc.03_Sasha Hall.avi
Формат : AVI
Формат/Информация : Audio Video Interleave
Размер файла : 455 Мбайт
Продолжительность : 20 м.
Общий поток : 3179 Кбит/сек

Видео
Идентификатор : 0
Формат : MPEG-4 Visual
Идентификатор кодека : XVID
Идентификатор кодека/Подсказка : XviD
Продолжительность : 20 м.
Битрейт : 3001 Кбит/сек
Ширина : 720 пикс.
Высота : 480 пикс.
Соотношение сторон : 3:2
Частота кадров : 29,970 кадр/сек
Стандарт вещания : NTSC
Цветовое пространство : YUV
Подвыборка цветности : 4:2:0
Метод сжатия : С потерями
Бит/(Пиксели*Кадры) : 0.290
Размер потока : 430 Мбайт (94%)

Аудио
Идентификатор : 1
Формат : MPEG Audio
Идентификатор кодека : 55
Идентификатор кодека/Подсказка : MP3
Продолжительность : 20 м.
Битрейт : 160 Кбит/сек
Каналы : 2 канала
Частота : 44,1 КГц
Метод сжатия : С потерями
Размер потока : 22,9 Мбайт (5%)
Выравнивание : Соединение по промежуткам
Продолжительность промежутка : 26 мс. (0,78 видеокадр)

Общее
Полное имя : Angel Face_AVI_Split Scenes\Angel Face_Sc.04_Elaina Raye.avi
Формат : AVI
Формат/Информация : Audio Video Interleave
Размер файла : 584 Мбайт
Продолжительность : 25 м.
Общий поток : 3179 Кбит/сек

Видео
Идентификатор : 0
Формат : MPEG-4 Visual
Идентификатор кодека : XVID
Идентификатор кодека/Подсказка : XviD
Продолжительность : 25 м.
Битрейт : 3001 Кбит/сек
Ширина : 720 пикс.
Высота : 480 пикс.
Соотношение сторон : 3:2
Частота кадров : 29,970 кадр/сек
Стандарт вещания : NTSC
Цветовое пространство : YUV
Подвыборка цветности : 4:2:0
Метод сжатия : С потерями
Бит/(Пиксели*Кадры) : 0.290
Размер потока : 551 Мбайт (94%)

Аудио
Идентификатор : 1
Формат : MPEG Audio
Идентификатор кодека : 55
Идентификатор кодека/Подсказка : MP3
Продолжительность : 25 м.
Битрейт : 160 Кбит/сек
Каналы : 2 канала
Частота : 44,1 КГц
Метод сжатия : С потерями
Размер потока : 29,4 Мбайт (5%)
Выравнивание : Соединение по промежуткам
Продолжительность промежутка : 26 мс. (0,78 видеокадр)

Общее
Полное имя : Angel Face_AVI_Split Scenes\Angel Face_Sc.05.00_Title.avi
Формат : AVI
Формат/Информация : Audio Video Interleave
Размер файла : 10,7 Мбайт
Продолжительность : 33 с.
Общий поток : 2643 Кбит/сек

Видео
Идентификатор : 0
Формат : MPEG-4 Visual
Профиль формата : Advanced Simple@L4
Параметр BVOP формата : Нет
Параметр QPel формата : Нет
Параметр GMC формата : Без точки перехода
Параметр матрицы формата : Default (H.263)
Идентификатор кодека : XVID
Идентификатор кодека/Подсказка : XviD
Продолжительность : 33 с.
Битрейт : 2441 Кбит/сек
Ширина : 720 пикс.
Высота : 480 пикс.
Соотношение сторон : 16:9
Частота кадров : 29,970 кадр/сек
Стандарт вещания : NTSC
Цветовое пространство : YUV
Подвыборка цветности : 4:2:0
Битовая глубина : 8 бит
Тип развёртки : Прогрессивная
Метод сжатия : С потерями
Бит/(Пиксели*Кадры) : 0.236
Размер потока : 9,88 Мбайт (92%)

Аудио
Идентификатор : 1
Формат : MPEG Audio
Версия формата : Version 1
Профиль формата : Layer 3
Идентификатор кодека : 55
Идентификатор кодека/Подсказка : MP3
Продолжительность : 33 с.
Вид битрейта : Постоянный
Битрейт : 160 Кбит/сек
Каналы : 2 канала
Частота : 44,1 КГц
Метод сжатия : С потерями
Задержка видео : 25 мс.
Размер потока : 658 Кбайт (6%)
Выравнивание : Соединение по промежуткам
Продолжительность промежутка : 26 мс. (0,79 видеокадр)

Общее
Полное имя : Angel Face_AVI_Split Scenes\Angel Face_Sc.06_Bonus Sc.1_Tia Cyrus.avi
Формат : AVI
Формат/Информация : Audio Video Interleave
Размер файла : 489 Мбайт
Продолжительность : 21 м.
Общий поток : 3170 Кбит/сек

Видео
Идентификатор : 0
Формат : MPEG-4 Visual
Профиль формата : Advanced Simple@L4
Параметр BVOP формата : Нет
Параметр QPel формата : Нет
Параметр GMC формата : Без точки перехода
Параметр матрицы формата : Default (H.263)
Идентификатор кодека : XVID
Идентификатор кодека/Подсказка : XviD
Продолжительность : 21 м.
Битрейт : 2997 Кбит/сек
Ширина : 720 пикс.
Высота : 480 пикс.
Соотношение сторон : 16:9
Частота кадров : 29,970 кадр/сек
Стандарт вещания : NTSC
Цветовое пространство : YUV
Подвыборка цветности : 4:2:0
Битовая глубина : 8 бит
Тип развёртки : Прогрессивная
Метод сжатия : С потерями
Бит/(Пиксели*Кадры) : 0.289
Размер потока : 462 Мбайт (95%)

Аудио
Идентификатор : 1
Формат : MPEG Audio
Версия формата : Version 1
Профиль формата : Layer 3
Идентификатор кодека : 55
Идентификатор кодека/Подсказка : MP3
Продолжительность : 21 м.
Вид битрейта : Постоянный
Битрейт : 160 Кбит/сек
Каналы : 2 канала
Частота : 44,1 КГц
Метод сжатия : С потерями
Размер потока : 24,7 Мбайт (5%)
Выравнивание : Разделение по промежуткам
Продолжительность промежутка : 26 мс. (0,78 видеокадр)
Библиотека кодирования : LAME3.98.2

Общее
Полное имя : Angel Face_AVI_Split Scenes\Angel Face_Sc.07_Bonus Sc.2_Lily Carter.avi
Формат : AVI
Формат/Информация : Audio Video Interleave
Размер файла : 464 Мбайт
Продолжительность : 20 м.
Общий поток : 3165 Кбит/сек

Видео
Идентификатор : 0
Формат : MPEG-4 Visual
Профиль формата : Advanced Simple@L4
Параметр BVOP формата : Нет
Параметр QPel формата : Нет
Параметр GMC формата : Без точки перехода
Параметр матрицы формата : Default (H.263)
Идентификатор кодека : XVID
Идентификатор кодека/Подсказка : XviD
Продолжительность : 20 м.
Битрейт : 2992 Кбит/сек
Ширина : 720 пикс.
Высота : 480 пикс.
Соотношение сторон : 16:9
Частота кадров : 29,970 кадр/сек
Стандарт вещания : NTSC
Цветовое пространство : YUV
Подвыборка цветности : 4:2:0
Битовая глубина : 8 бит
Тип развёртки : Прогрессивная
Метод сжатия : С потерями
Бит/(Пиксели*Кадры) : 0.289
Размер потока : 438 Мбайт (95%)

Аудио
Идентификатор : 1
Формат : MPEG Audio
Версия формата : Version 1
Профиль формата : Layer 3
Идентификатор кодека : 55
Идентификатор кодека/Подсказка : MP3
Продолжительность : 20 м.
Вид битрейта : Постоянный
Битрейт : 160 Кбит/сек
Каналы : 2 канала
Частота : 44,1 КГц
Метод сжатия : С потерями
Размер потока : 23,4 Мбайт (5%)
Выравнивание : Разделение по промежуткам
Продолжительность промежутка : 26 мс. (0,78 видеокадр)
Библиотека кодирования : LAME3.98.2

Общее
Полное имя : Angel Face_AVI_Split Scenes\Angel Face_Sc.08_Behind the Scenes.avi
Формат : AVI
Формат/Информация : Audio Video Interleave
Размер файла : 294 Мбайт
Продолжительность : 12 м.
Общий поток : 3172 Кбит/сек

Видео
Идентификатор : 0
Формат : MPEG-4 Visual
Профиль формата : Advanced Simple@L4
Параметр BVOP формата : Нет
Параметр QPel формата : Нет
Параметр GMC формата : Без точки перехода
Параметр матрицы формата : Default (H.263)
Идентификатор кодека : XVID
Идентификатор кодека/Подсказка : XviD
Продолжительность : 12 м.
Битрейт : 2998 Кбит/сек
Ширина : 720 пикс.
Высота : 480 пикс.
Соотношение сторон : 16:9
Частота кадров : 29,970 кадр/сек
Стандарт вещания : NTSC
Цветовое пространство : YUV
Подвыборка цветности : 4:2:0
Битовая глубина : 8 бит
Тип развёртки : Прогрессивная
Метод сжатия : С потерями
Бит/(Пиксели*Кадры) : 0.289
Размер потока : 278 Мбайт (95%)

Аудио
Идентификатор : 1
Формат : MPEG Audio
Версия формата : Version 1
Профиль формата : Layer 3
Идентификатор кодека : 55
Идентификатор кодека/Подсказка : MP3
Продолжительность : 12 м.
Вид битрейта : Постоянный
Битрейт : 160 Кбит/сек
Каналы : 2 канала
Частота : 44,1 КГц
Метод сжатия : С потерями
Размер потока : 14,8 Мбайт (5%)
Выравнивание : Разделение по промежуткам
Продолжительность промежутка : 26 мс. (0,78 видеокадр)
Библиотека кодирования : LAME3.98.2</span>[/spoiler]
[i][b]************************************

[spoiler=\"[b]Скриншоты
\"]
[spoiler=\"Angel Face_Sc.01_Zoey Kush\"]
[/spoiler]
[spoiler=\"Angel Face_Sc.02_Veronica Rodriguez\"]
[/spoiler]
[spoiler=\"Angel Face_Sc.03_Sasha Hall\"]
[/spoiler]
[spoiler=\"Angel Face_Sc.04_Elaina Raye\"]
[/spoiler]
[spoiler=\"Angel Face_Sc.06_Bonus Sc.1_Tia Cyrus\"]
[/spoiler]
[spoiler=\"Angel Face_Sc.07_Bonus Sc.2_Lily Carter\"]
[/spoiler]
[spoiler=\"Angel Face_Sc.08_Behind the Scenes\"]
[/spoiler]
[/spoiler]
[spoiler=\"Альтернатива\"]




</span>[/spoiler]
[b]Angel Face DVD5 (Автор - Miami-Dade)


Трекер:  [ 01-Июн-2013 14:29 ]

  

Скачать .torrent

Размер .torrent файла 18 KB


Размер: 3.3 GB
Хэш (hash) релиза: d5686d32f8b97774d6f34eb87402da1904e14ea1

Торренты, похожие на Angel Face С Ангельским Лицом скачать торрент

Форум Название Автор Размер S L Добавлен
Гонзо-фильмы ·· Angel Face / С Ангельским Лицом (Eddie Powell, Digital Sin) [2011, Gonzo, 18+ Teens, DVDRip] (Sasha Hall, Zoey Kush, Veronica Rodriguez, Elaina Raye) Release Date: Aug 19, 2011! Galfimbul 734173184700 MB 2 0 1364388402

15:46

27-Мар-13

Гонзо-фильмы ·· Angel Face / С Ангельским Лицом (Eddie Powell, Digital Sin) [2011 г., Gonzo, 18+ Teens, All Sex, Blowjob, Facial, Hardcore, DVDRip] (Sasha Hall, Zoey Kush, Veronica Rodriguez, Elaina Raye) Galfimbul 14729344201.37 GB 0 0 1364382232

14:03

27-Мар-13

bot

Топик был перенесен в форум Гонзо-фильмы

Перенес Galfimbul

Хотите добавить комментарий к записи скачать торрент Angel Face С Ангельским Лицом

!Обратная связь