Скачать порно через торрент Jessica Drakes guide to Wicked Sex: Female Masturbation Рецепты грязного секса от Джессики Дрэйк: Женская Мастурбация UnionPeer.org бесплатно онлайн HD качество

Скачать новое порно 2015, 2014 новинки через торрент UnionPeer.org

Порно торрент бесплатно ЮнионПир.орг

Если у вас наблюдаются проблемы со скриншотами, переходом по ссылками, скачиванием торрентов - проблемы в блокировщике рекламы AdBlock. #хорошегоДня!


Статистика раздачи
Размер:  868 MB   |    Зарегистрирован:  4 года 3 месяца   |    .torrent скачан:  210 раз   |   
Раздают:  1  
   
Загрузка...
 
Автор Сообщение

Galfimbul

avatar Galfimbul


Jessica Drake's guide to Wicked Sex: Female Masturbation / Рецепты грязного секса от Джессики Дрэйк: Женская Мастурбация
Год производства: 2011 г.
Страна: USA
Жанр: Masturbation, Solo, Bedroom, Living Room, Sex Toys
Продолжительность: 01:11:22

Режиссер: Jessica Drake
Студия: Wicked Pictures

Язык: Английский
В ролях: Julia Ann, Lily Labeau, Misty Stone

Описание: The best way to be a better lover is to love yourself, and that's exactly what you'll do, with the help of this DVD. In jessica drake's Guide to Wicked Sex-Female Masturbation, you'll find the keys to unlocking the big O.
Общее
Полное имя : D:\torrent\wkd_jessica_drakes_guide_to_wicked_sex_female_masturbation_400p_1300.mp4
Формат : MPEG-4
Профиль формата : Base Media
Идентификатор кодека : isom
Размер файла : 868 Мбайт
Продолжительность : 1 ч. 23 м.
Режим общего битрейта : Переменный
Общий поток : 1455 Кбит/сек
Программа кодирования : Lavf52.102.0

Видео
Идентификатор : 1
Формат : AVC
Формат/Информация : Advanced Video Codec
Профиль формата : High@L3.1
Параметр CABAC формата : Да
Параметр ReFrames формата : 5 кадров
Идентификатор кодека : avc1
Идентификатор кодека/Информация : Advanced Video Coding
Продолжительность : 1 ч. 23 м.
Битрейт : 1300 Кбит/сек
Ширина : 720 пикселей
Высота : 400 пикселей
Соотношение сторон : 16:9
Режим частоты кадров : Постоянный
Частота кадров : 23,976 кадра/сек
Цветовое пространство : YUV
Субдискретизация насыщенности : 4:2:0
Битовая глубина : 8 бит
Тип развёртки : Прогрессивная
Бит/(Пиксели*Кадры) : 0.188
Размер потока : 767 Мбайт (88%)
Библиотека кодирования : x264 core 114 r1913 5fd3dce
Настройки программы : cabac=1 / ref=5 / deblock=1:0:0 / analyse=0x3:0x113 / me=umh / subme=8 / psy=1 / psy_rd=1.00:0.00 / mixed_ref=1 / me_range=16 / chroma_me=1 / trellis=1 / 8x8dct=1 / cqm=0 / deadzone=21,11 / fast_pskip=1 / chroma_qp_offset=-2 / threads=3 / sliced_threads=0 / nr=0 / decimate=1 / interlaced=0 / constrained_intra=0 / bframes=3 / b_pyramid=2 / b_adapt=2 / b_bias=0 / direct=3 / weightb=1 / open_gop=0 / weightp=2 / keyint=60 / keyint_min=25 / scenecut=40 / intra_refresh=0 / rc_lookahead=50 / rc=abr / mbtree=1 / bitrate=1300 / ratetol=1.0 / qcomp=0.60 / qpmin=10 / qpmax=51 / qpstep=4 / ip_ratio=1.41 / aq=1:1.00
Дата пометки : UTC 2011-12-19 00:48:43

Аудио
Идентификатор : 2
Формат : AAC
Формат/Информация : Advanced Audio Codec
Профиль формата : LC
Идентификатор кодека : 40
Продолжительность : 1 ч. 23 м.
Вид битрейта : Переменный
Битрейт : 96,0 Кбит/сек
Каналы : 2 канала
Расположение каналов : Front: L R
Частота : 48,0 КГц
Метод сжатия : С потерями
Размер потока : 57,3 Мбайт (7%)
Дата пометки : UTC 2011-12-19 00:48:43

Качество видео: WEB-DL
Video: MPEG4 Video (H264) 720x400 (16:9) 23.98fps 1300Kbps[Video]
Audio: AAC 48000Hz stereo 1536kbps [Audio]

Трекер:  [ 28-Май-2013 16:12 ]

  

Скачать .torrent

Размер .torrent файла 17 KB


Размер: 868 MB
Хэш (hash) релиза: 8d4c738c662e0990c7a1e3ea1a3a0d51e7a97e19

bot

Топик был перенесен в форум Гонзо-фильмы

Перенес Galfimbul

Хотите добавить комментарий к записи скачать торрент Jessica Drakes guide to Wicked Sex: Female Masturbation Рецепты грязного секса от Джессики Дрэйк: Женская Мастурбация

!Обратная связь