Скачать порно через торрент Hellcats 6 Адские кошки 6 UnionPeer.org бесплатно онлайн HD качество

Скачать новое порно 2015, 2014 новинки через торрент UnionPeer.org

Порно торрент бесплатно ЮнионПир.орг

Если у вас наблюдаются проблемы со скриншотами, переходом по ссылками, скачиванием торрентов - проблемы в блокировщике рекламы AdBlock. #хорошегоДня!


Статистика раздачи
Размер:  1.36 GB   |    Зарегистрирован:  4 года 2 месяца   |    .torrent скачан:  111 раз   |   
Раздают:  1  
   
Загрузка...
 
Автор Сообщение

Galfimbul

avatar Galfimbul


Hellcats 6 / Адские кошки 6



Год производства: 2005 г.
Страна: USA
Жанр: Gonzo, Anal, Interracial
Продолжительность: 02:36:31
Режиссер: Joey Silvera
Студия: Evil Angel Video, US



В ролях:
Christie Lee, Lauren Phoenix, Holly Wellin, Sandra Romain, Poppy Morgan, Barbara Summer, Kat

Описание:
Every girl gets ass f*cked! Holly Wellin takes it up the ass to get out of prison. Lauren Phoenix said to Sandra Romain, "Please don't hold back." Christie Lee really steals this movie!

Качество видео: DVDRip
Формат видео: AVI
Видео кодек: XviD
Аудио кодек: MP3

Видео: XVID MPEG-4 H.263, 1118 Кбит/сек, 512X384, 4:3, 29,970 кадр/сек
Аудио: English, MP3, 2.0 Joint stereo, 128 Кбит/сек, 48,0 КГц



Общее
Полное имя : C:\Hellcats.6.Special.Edition.2005.DVDRip.UH.avi
Формат : AVI
Формат/Информация : Audio Video Interleave
Размер файла : 1,36 Гбайт
Продолжительность : 2 ч. 36 м.
Общий поток : 1247 Кбит/сек
Программа кодирования : Nandub v1.0rc2
Библиотека кодирования : VirtualDub build 32618/release

Видео
Идентификатор : 0
Формат : MPEG-4 Visual
Профиль формата : Advanced Simple@L5
Параметр BVOP формата : 2
Параметр QPel формата : Нет
Параметр GMC формата : Без точки перехода
Параметр матрицы формата : Default (H.263)
Режим смешивания : Сжатый битовый поток
Идентификатор кодека : XVID
Идентификатор кодека/Подсказка : XviD
Продолжительность : 2 ч. 36 м.
Битрейт : 1118 Кбит/сек
Ширина : 512 пикс.
Высота : 384 пикс.
Соотношение сторон : 4:3
Частота кадров : 29,970 кадр/сек
Цветовое пространство : YUV
Подвыборка цветности : 4:2:0
Битовая глубина : 8 бит
Тип развёртки : Прогрессивная
Метод сжатия : С потерями
Бит/(Пиксели*Кадры) : 0.190
Размер потока : 1,22 Гбайт (90%)
Библиотека кодирования : XviD 1.0.2 (UTC 2004-08-29)

Аудио
Идентификатор : 1
Формат : MPEG Audio
Версия формата : Version 1
Профиль формата : Layer 3
Режим : Joint stereo
Расширение режима : MS Stereo
Идентификатор кодека : 55
Идентификатор кодека/Подсказка : MP3
Продолжительность : 2 ч. 36 м.
Вид битрейта : Переменный
Битрейт : 116 Кбит/сек
Номинальный битрейт : 128 Кбит/сек
Каналы : 2 канала
Частота : 48,0 КГц
Метод сжатия : С потерями
Размер потока : 130 Мбайт (9%)
Выравнивание : Соединение по промежуткам
Продолжительность промежутка : 24 мс. (0,72 видеокадр)
Время предзагрузки промежутка : 470 ms
Библиотека кодирования : LAME3.90.
Настройки программы : -m j -V 0 -q 5 -lowpass 15.3 --abr 128


Трекер:  [ 28-Май-2013 16:14 ]

  

Скачать .torrent

Размер .torrent файла 14 KB


Размер: 1.36 GB
Хэш (hash) релиза: 9d7b93e3dfc63221bd84e9850dbb9cae889b3761

bot

Топик был перенесен в форум Гонзо-фильмы

Перенес Galfimbul

Хотите добавить комментарий к записи скачать торрент Hellcats 6 Адские кошки 6

!Обратная связь