Скачать порно через торрент MILF All-Stars 3. Мамочки-Суперзвезды 3. UnionPeer.org бесплатно онлайн HD качество

Скачать новое порно 2015, 2014 новинки через торрент UnionPeer.org

Порно торрент бесплатно ЮнионПир.орг

Если у вас наблюдаются проблемы со скриншотами, переходом по ссылками, скачиванием торрентов - проблемы в блокировщике рекламы AdBlock. #хорошегоДня!


Статистика раздачи
Размер:  2.44 GB   |    Зарегистрирован:  4 года 2 месяца   |    .torrent скачан:  252 раза   |   
Раздают:  1  
   
Загрузка...
 
Автор Сообщение

Galfimbul

avatar Galfimbul


MILF All-Stars 3. / Мамочки-Суперзвезды 3.
*(Release Date: Oct 19, 2010)


Релиз Группы: NoName.
Год производства: 2010г. Страна: USA. Жанр: All Sex, Anal, Compilation, Older, MILF / Cougar.
Продолжительность: 03:28:54 Язык: Английский. Режисёр: Студия: Elegant Angel.
В ролях: Sandra Romain, Nyomi Banxxx, Kristal Summers, Annie Cruz, America.
Описание: The Cougars are back for more! These Elegant MILFs will do whatever it takes to please, and do they ever! This is the third All-Star MILF XXXtravaganza!
Доп. информация: http://www.adultdvdempire.com/1550971/slutty-secretaries-porn-videos.html
Качество: DVDRip. Формат: WMV. Видео кодек: WVC1. Аудио кодек: MPEG Audio (mp3)
Видео: WVC1 720x480 (4:3) 27.00fps 1600kbps [Raw Video 1]
Звук: Windows Media Audio 48000Hz stereo 64kbps [Raw Audio 0]

General
Complete name : T:\PL\DVD-rip\MILF.All.Stars.3.XXX.WMV\milfallstarsvol3.wmv
Format : Windows Media
File size : 36.7 MiB
Duration : 3h 28mn
Overall bit rate mode : Constant
Overall bit rate : 24.6 Kbps
Maximum Overall bit rate : 1 681 Kbps
Movie name : MILF All-Stars Vol. 3
Performer : Adult DVD Empire
Encoded date : UTC 2010-10-16 02:23:19.781
Copyright : Copyright (c) Elegant Angel

Video
ID : 2
Format : VC-1
Format profile : AP@L1
Codec ID : WVC1
Codec ID/Hint : Microsoft
Description of the codec : Windows Media Video 9 Advanced Profile
Duration : 3h 28mn
Bit rate mode : Constant
Bit rate : 1 600 Kbps
Width : 720 pixels
Height : 480 pixels
Display aspect ratio : 3:2
Frame rate : 27.000 fps
Standard : NTSC
Chroma subsampling : 4:2:0
Bit depth : 8 bits
Scan type : Progressive
Bits/(Pixel*Frame) : 0.171
Stream size : 2.34 GiB

Audio
ID : 1
Format : WMA
Format version : Version 2
Codec ID : 161
Codec ID/Info : Windows Media Audio
Description of the codec : Windows Media Audio 9.2 - 64 kbps, 48 kHz, stereo (A/V) 1-pass CBR
Duration : 3h 28mn
Bit rate mode : Constant
Bit rate : 64.0 Kbps
Channel(s) : 2 channels
Sampling rate : 48.0 KHz
Bit depth : 16 bits
Stream size : 95.7 MiB

Приятного просмотра! Не забывайте говорить спасибо.
Оставайтесь как можно дольше на раздаче.


Трекер:  [ 28-Май-2013 14:14 ]

  

Скачать .torrent

Размер .torrent файла 12 KB


Размер: 2.44 GB
Хэш (hash) релиза: 177ce54ab4ddf0540239cb610d1b22c0e6de3e2a

bot

Топик был перенесен в форум Гонзо-фильмы

Перенес Galfimbul

Хотите добавить комментарий к записи скачать торрент MILF All-Stars 3. Мамочки-Суперзвезды 3.

!Обратная связь