Скачать порно через торрент Control Freaks Все под Контролем UnionPeer.org бесплатно онлайн HD качество

Скачать новое порно 2015, 2014 новинки через торрент UnionPeer.org

Порно торрент бесплатно ЮнионПир.орг

Если у вас наблюдаются проблемы со скриншотами, переходом по ссылками, скачиванием торрентов - проблемы в блокировщике рекламы AdBlock. #хорошегоДня!


Статистика раздачи
Размер:  1.48 GB   |    Зарегистрирован:  4 года 2 месяца   |    .torrent скачан:  49 раз   |   
Раздают:  1  
   
Загрузка...
 
Автор Сообщение

Galfimbul

avatar Galfimbul


Control Freaks / Все под Контролем Год производства: 2008 г.
Страна: USA
Жанр: Gonzo, Straight
Продолжительность: 02:17:58
Язык: Английский

Режиссер: Vince Vouyer
Студия: Vouyer Media

В ролях: Asa Akira, James Deen, Monica Foster, Gina Lynn, Myka Rain, Samira

Описание: Пять крошек с одной общей чертой... Эти малышки умеют держать все под контролем! Великолепная азиатская красавица Asa Akira, одна из главных символов порно современности Gina Lynn, экзотическая красотка Myka Rain и другие девочки покажут вам, как это надо делать! Более двух часов великолепного действа от мастера жанра!
Five freaks with one thing in common... Gorgeous Asian cover beauty Asa Akira turns in an amazing three-way here, draining two studs in a scene with the kind of “you are there” quality only Vince can deliver! Other highlights include an epic boy/girl coupling featuring award winning porn icon Gina Lynn and James Deen, and similarly torrid encounters starring Samira, Monica Foster, and exotic Myka Rain. Once the movie’s over, check out the plentiful extras, including a full length bonus scene featuring another all-new encounter with Asa, a scorching still gallery, and much more. “Control Freaks” is three hours of solid hardcore gonzo from the man AVN calls “the master of the genre!”

Качество видео: BDRip
Формат видео: AVI
Видео кодек: XviD
Аудио кодек: AC3
Видео: 704x396 (1.78:1), 29.970 fps, XviD build 50 ~1371 kbps avg, 0.16 bit/pixel
Аудио: 44.1 kHz, AC3 Dolby Digital, 2/0 (L,R) ch, ~160 kbps
General
Complete name                    : Control Freaks (2008) BDRip.avi
Format                           : AVI
Format/Info                      : Audio Video Interleave
Format profile                   : OpenDML
File size                        : 1.48 GiB
Duration                         : 2h 17mn
Overall bit rate                 : 1 540 Kbps
Writing application              : Lavf52.32.0

Video
ID                               : 0
Format                           : MPEG-4 Visual
Format profile                   : Simple@L3
Format settings, BVOP            : No
Format settings, QPel            : No
Format settings, GMC             : No warppoints
Format settings, Matrix          : Default (H.263)
Codec ID                         : XVID
Codec ID/Hint                    : XviD
Duration                         : 2h 17mn
Bit rate                         : 471 Kbps
Width                            : 704 pixels
Height                           : 396 pixels
Display aspect ratio             : 16:9
Frame rate                       : 29.970 fps
Color space                      : YUV
Chroma subsampling               : 4:2:0
Bit depth                        : 8 bits
Scan type                        : Progressive
Compression mode                 : Lossy
Bits/(Pixel*Frame)               : 0.056
Stream size                      : 465 MiB (31%)
Writing library                  : XviD 1.2.1 (UTC 2008-12-04)

Audio
ID                               : 1
Format                           : AC-3
Format/Info                      : Audio Coding 3
Mode extension                   : CM (complete main)
Codec ID                         : 2000
Duration                         : 2h 17mn
Bit rate mode                    : Constant
Bit rate                         : 160 Kbps
Channel(s)                       : 2 channels
Channel positions                : Front: L R
Sampling rate                    : 44.1 KHz
Bit depth                        : 16 bits
Compression mode                 : Lossy
Delay relative to video          : 37s 152ms
Stream size                      : 56.8 MiB (4%)
Alignment                        : Split accross interleaves
Interleave, duration             : 38 ms (1.14 video frame)


Трекер:  [ 27-Май-2013 15:01 ]

  

Скачать .torrent

Размер .torrent файла 15 KB


Размер: 1.48 GB
Хэш (hash) релиза: f0fa3fb3f5403d9264d4ac6679c002c27ec71219

Торренты, похожие на Control Freaks Все под Контролем скачать торрент

Форум Название Автор Размер S L Добавлен
Порно фильмы без сюжета ·· Control Freaks / Все под Контролем (Vince Vouyer / Vouyer Media) [2008, Gonzo, Straight, 1080i, Blu-Ray] Galfimbul 1987950853218.51 GB 0 0 1310322620

21:30

10-Июл-11

bot

Топик был перенесен в форум Гонзо-фильмы

Перенес Galfimbul

Хотите добавить комментарий к записи скачать торрент Control Freaks Все под Контролем

!Обратная связь