Скачать порно через торрент Jacks Teen America Mission: 23 Подростковая Америка Джека Миссия: 23 UnionPeer.org бесплатно онлайн HD качество

Скачать новое порно 2015, 2014 новинки через торрент UnionPeer.org

Порно торрент бесплатно ЮнионПир.орг

Если у вас наблюдаются проблемы со скриншотами, переходом по ссылками, скачиванием торрентов - проблемы в блокировщике рекламы AdBlock. #хорошегоДня!


Статистика раздачи
Размер:  1.8 GB   |    Зарегистрирован:  4 года 2 месяца   |    .torrent скачан:  54 раза   |   
Раздают:  1  
   
Загрузка...
 
Автор Сообщение

Galfimbul

avatar Galfimbul


Jack's Teen America Mission: 23
Подростковая Америка Джека Миссия: 23



Год производства: 2009 г. Страна: USA Жанр: Teen, Gonzo, Straight Продолжительность: 02:20:31
Субтитры: Нет Язык: Английский
Режиссер: Robby D. Студия: Digital Playground
В ролях:
Angelina Valentine, Ariel Summers, Emy Reyes, Erik Everhard, James Deen, Mick Blue, Riley Steele, Scott Nails, Stoya
Описание: | IMDB |
Jack knows ambitious chicks will do ANYTHING to win first place in a beauty pageant. "Jack's Teen America 23" features Jack and his crew interviewing lovely contestants including Digital Playground's scintillating contract stars Riley Steele and Stoya. Jack wants to know what special "talents" they possess in order to become the next Teen America. Riley and Stoya studied long and hard for the oral portion of the competition, and they both are willing to twirl Jack's ten-inch baton. All the girls are quite adept at coaxing out Jack's.. vote. Angelina Valentine, Ariel Summers and Emy Reyes join the hot sucking, fucking and anal action. "Jack's Teen America 23" is full of horny girls who won't settle for second place!
Качество видео: BDRip-AVC Формат видео: MKV
Видео кодек: AVC Аудио кодек: AC3
Видео: AVC | 16:9 | 1024x576 | 29.970 fps | 1 650 Kbps
Аудио: AC3 | 48.0 KHz | 2 ch | 192 Kbps
General
Complete name                    : D:\Reliz.by.unionpeer.org\Jacks.Teen.America.Mission.23.BDRip-AVC.Milashka.mkv
Format                           : Matroska
File size                        : 1.80 GiB
Duration                         : 2h 19mn
Overall bit rate                 : 1 844 Kbps
Encoded date                     : UTC 2010-10-21 07:56:46
Writing application              : mkvmerge v3.3.0 ('Language') built on Mar 24 2010 14:59:24
Writing library                  : libebml v0.8.0 + libmatroska v0.9.0

Video
ID                               : 1
Format                           : AVC
Format/Info                      : Advanced Video Codec
Format profile                   : High@L3.1
Format settings, CABAC           : Yes
Format settings, ReFrames        : 4 frames
Muxing mode                      : Container profile=Unknown@3.1
Codec ID                         : V_MPEG4/ISO/AVC
Duration                         : 2h 19mn
Bit rate                         : 1 615 Kbps
Nominal bit rate                 : 1 650 Kbps
Width                            : 1 024 pixels
Height                           : 576 pixels
Display aspect ratio             : 16:9
Frame rate                       : 29.970 fps
Resolution                       : 8 bits
Colorimetry                      : 4:2:0
Scan type                        : Progressive
Bits/(Pixel*Frame)               : 0.091
Stream size                      : 1.58 GiB (88%)
Writing library                  : x264 core 92 r1510 33d382a
Encoding settings                : cabac=1 / ref=4 / deblock=1:0:0 / analyse=0x3:0x113 / me=umh / subme=7 / psy=1 / psy_rd=1.00:0.00 / mixed_ref=1 / me_range=32 / chroma_me=1 / trellis=0 / 8x8dct=1 / cqm=0 / deadzone=21,11 / fast_pskip=0 / chroma_qp_offset=-2 / threads=3 / sliced_threads=0 / nr=0 / decimate=1 / interlaced=0 / constrained_intra=0 / bframes=2 / b_pyramid=2 / b_adapt=0 / b_bias=0 / direct=3 / wpredb=1 / wpredp=0 / keyint=250 / keyint_min=25 / scenecut=40 / intra_refresh=0 / rc_lookahead=60 / rc=2pass / mbtree=1 / bitrate=1650 / ratetol=1.0 / qcomp=0.60 / qpmin=10 / qpmax=51 / qpstep=4 / cplxblur=20.0 / qblur=0.5 / vbv_maxrate=14000 / vbv_bufsize=14000 / ip_ratio=1.40 / aq=1:1.00 / nal_hrd=none

Audio
ID                               : 2
Format                           : AC-3
Format/Info                      : Audio Coding 3
Codec ID                         : A_AC3
Duration                         : 2h 19mn
Bit rate mode                    : Constant
Bit rate                         : 192 Kbps
Channel(s)                       : 2 channels
Channel positions                : L R
Sampling rate                    : 48.0 KHz
Stream size                      : 192 MiB (10%)
Релиз группы:


Трекер:  [ 27-Май-2013 15:01 ]

  

Скачать .torrent

Размер .torrent файла 18 KB


Размер: 1.8 GB
Хэш (hash) релиза: bf5404d0223e3b99dd30a99b9ec5fb166ee23742

Торренты, похожие на Jacks Teen America Mission: 23 Подростковая Америка Джека Миссия: 23 скачать торрент

Форум Название Автор Размер S L Добавлен
Зарубежные порнофильмы ·· Jack's Teen America Mission 23 / Подростковая Америка Джека Миссия 23 (Robby D, Digital Playground) [2009 г., Teen, Gonzo, Straight, 1080i, Blu-Ray] Galfimbul 2221407412820.69 GB 0 0 1409031126

08:32

26-Авг-14

bot

Топик был перенесен в форум Гонзо-фильмы

Перенес Galfimbul

Хотите добавить комментарий к записи скачать торрент Jacks Teen America Mission: 23 Подростковая Америка Джека Миссия: 23

!Обратная связь