Jacks POV 18 18 UnionPeer.org HD

2015, 2014 UnionPeer.org

.

, , - AdBlock. #!


1.36 GB   |    :  4 6    |    .torrent :  267    |   
1  
   
...
 

Galfimbul

avatar Galfimbul


Jack's POV 18 / 18



: 2011 | : POV, Gonzo, Straight
: Robby D. | : Digital Playground | : 2 hrs. 34 mins.

:
Kayden Kross , Alexis Texas , Candy Manson , Sophia Santi , Kourtney Kane , Mick Blue , Manuel Ferrara , Scott Nails

:
Real girls uncensored
Beautiful superstar Kayden Kross comes up close, right in the palm of your hands, with lusty POV action. Kayden invites you to reach out and touch her as she and other hot, gorgeous horny stars indulge your sexual fantasies. Real lust, uncensored desire and burning passion in your face so close you can feel it.

: DVDRip | : AVI
Video: XviD, 608x336, 1 108 Kbps, 23.976 fps | Audio: MP3, 121 Kbps, 2 channels, 48.0 KHz
General
Complete name : \jiggly-jackspov18-cd1.avi
Format : AVI
Format/Info : Audio Video Interleave
File size : 697 MiB
Duration : 1h 16mn
Overall bit rate : 1 271 Kbps
Writing application : VirtualDubMod 1.5.10.2 (build 2540/release)
Writing library : VirtualDubMod build 2540/release

Video
ID : 0
Format : MPEG-4 Visual
Format profile : Advanced Simple@L5
Format settings, BVOP : 3
Format settings, QPel : No
Format settings, GMC : No warppoints
Format settings, Matrix : Default (MPEG)
Codec ID : XVID
Codec ID/Hint : XviD
Duration : 1h 16mn
Bit rate : 1 138 Kbps
Width : 608 pixels
Height : 336 pixels
Display aspect ratio : 16:9
Frame rate : 23.976 fps
Color space : YUV
Chroma subsampling : 4:2:0
Bit depth : 8 bits
Scan type : Progressive
Compression mode : Lossy
Bits/(Pixel*Frame) : 0.232
Stream size : 624 MiB (90%)
Writing library : XviD 1.2.1 (UTC 2008-12-04)

Audio
ID : 1
Format : MPEG Audio
Format version : Version 1
Format profile : Layer 3
Mode : Joint stereo
Mode extension : MS Stereo
Codec ID : 55
Codec ID/Hint : MP3
Duration : 1h 16mn
Bit rate mode : Variable
Bit rate : 121 Kbps
Nominal bit rate : 128 Kbps
Channel(s) : 2 channels
Sampling rate : 48.0 KHz
Compression mode : Lossy
Stream size : 66.1 MiB (9%)
Alignment : Aligned on interleaves
Interleave, duration : 24 ms (0.58 video frame)
Interleave, preload duration : 152 ms
Writing library : LAME3.90.
Encoding settings : -m j -V 4 -q 2 -lowpass 17.6 --abr 128

General
Complete name : \jiggly-jackspov18-cd2.avi
Format : AVI
Format/Info : Audio Video Interleave
File size : 698 MiB
Duration : 1h 18mn
Overall bit rate : 1 242 Kbps
Writing application : VirtualDubMod 1.5.10.2 (build 2540/release)
Writing library : VirtualDubMod build 2540/release

Video
ID : 0
Format : MPEG-4 Visual
Format profile : Advanced Simple@L5
Format settings, BVOP : 2
Format settings, QPel : No
Format settings, GMC : No warppoints
Format settings, Matrix : Default (MPEG)
Codec ID : XVID
Codec ID/Hint : XviD
Duration : 1h 18mn
Bit rate : 1 108 Kbps
Width : 608 pixels
Height : 336 pixels
Display aspect ratio : 16:9
Frame rate : 23.976 fps
Color space : YUV
Chroma subsampling : 4:2:0
Bit depth : 8 bits
Scan type : Progressive
Compression mode : Lossy
Bits/(Pixel*Frame) : 0.226
Stream size : 623 MiB (89%)
Writing library : XviD 1.2.1 (UTC 2008-12-04)

Audio
ID : 1
Format : MPEG Audio
Format version : Version 1
Format profile : Layer 3
Mode : Joint stereo
Mode extension : MS Stereo
Codec ID : 55
Codec ID/Hint : MP3
Duration : 1h 18mn
Bit rate mode : Variable
Bit rate : 121 Kbps
Channel(s) : 2 channels
Sampling rate : 48.0 KHz
Compression mode : Lossy
Stream size : 68.2 MiB (10%)
Alignment : Aligned on interleaves
Interleave, duration : 24 ms (0.58 video frame)
Interleave, preload duration : 498 ms


 ·  , , FAQ-
:  [ 29--2013 12:17 ]

  

.torrent

.torrent 14 KB


: 1.36 GB
(hash) : be9022cb871aab75d157eae456f26a6b47353319
··
...

Jacks POV 18 18 . !

!