Anal Pornsluts UnionPeer.org HD

2015, 2014 UnionPeer.org

.

, , - AdBlock. #!


2.73 GB   |    :  4 4    |    .torrent :  351    |   
1  
   
...
 

Galfimbul

avatar Galfimbul


Anal Pornsluts /



: 2011 | : USA | : Gonzo, Anal, POV, Gaping, ATM, Straight
: Mike Adriano | : Evil Angel | : ~4 40
:

:
Asa Akira, Sienna West, Ashlynn Leigh, Candy Mason, Francesca Le, Mike Adriano

:
Anal Only! POV! 110% Wide Open Assholes!

Asa Akira - Balls Deep In Her Ass!

Sienna West - Ass Fucked Beauty!

Ashlynn Leigh - Teenage Asshole Split Open!

Candy Mason - Busty Anal Bombshell!

Francesca Le - Butt Sex Nympho!

Asshole obsessed Mike Adriano gets to probe, spread, gape and fuck the asses of five willing hotties, eventually filling their anxious mouths with his cum, all captured in his trademark POV+ style that has made his every video release an instant bestseller. The ladies are all unique featuring a variety of types: big-titted blonde Candy Manson; perky, small-breasted pixie Ashlynn Leigh; raven-haired über-slut Sienna West and her ginormous jugs; and for sheer star power, Asian it-girl Asa Akira and MILF nymph Francesca Le.

There's even a bonus BJ scene with ebony tart Olivia Winters. Despite the diversity, there are some common characteristics... three of the lasses are clad cut-off jeans and neon colored fishnets (body stockings, hose or boob holders). Asa sports a royal blue fishnet panty and halter while Francesca breaks with tradition and instead models an all red ensemble of bra, panties, stockings and garter belt. The emphasis on the clothes must be to tease, tantalize and drive horny guys crazy since nipples and asses protrude as if begging for release into the waiting mouths of their rescuing studs. The girls clearly feel sexy and empowered when parading around in the colorful outfits, aware of the effects their scantily clad curves are having on Mike, who seems to stay rock-hard and ready throughout each segment.

Invariably the tables are turned as each girl happily obliges Mike's kinky desire to insert butt plugs, speculums, fingers and his cock, giving each an anal roto-reaming. Most exciting, all the girls appear to relax, release and then cum furiously under the careful manipulation of the sphincter sophisticate Mike Adriano. For her part, Asian oralist Asa finishes her rendezvous by making sure lucky Mike knows how good the other side can be. She sucks his cock with deep throat artistry while lovingly looking right in his eyes and coaxing his cum blast, as if to make sure Mike knows there's more to her than just a great ass fuck.

Clearly inspired, Mike gives all the females full body workouts, including tit-fuckings for both Candy and Siena's massive, mashed mams. In each scene, the lengthy anal exploratory is followed by a perfectly framed view of Mike's big moment, when he bastes the face and tits of the woman. In a perverted equal opportunity, Mike focuses on the anal without losing sight of the whole package. The title is direct and to the point: Anal Pornsluts. Any questions?

: DVDRip| : AVI
: XviD 576x320 29.97 fps 846 - 1556 Kbps | : MP3, 131 Kbps, 2 channels, 48.0 KHz
General
Complete name : clit-anal.pornsluts.disc1_cd1.avi
Format : AVI
Format/Info : Audio Video Interleave
File size : 699 MiB
Duration : 1h 5mn
Overall bit rate : 1 492 Kbps
Writing application : VirtualDubMod 1.5.10.2 (build 2540/release)
Writing library : VirtualDubMod build 2540/release

Video
Format : MPEG-4 Visual
Format profile : Streaming Video@L1
Format settings, BVOP : Yes
Format settings, QPel : No
Format settings, GMC : No warppoints
Format settings, Matrix : Default
Codec ID : XVID
Codec ID/Hint : XviD
Duration : 1h 5mn
Bit rate : 1 346 Kbps
Width : 576 pixels
Height : 320 pixels
Display aspect ratio : 16/9
Frame rate : 29.970 fps
Resolution : 24 bits
Colorimetry : 4:2:0
Scan type : Progressive
Bits/(Pixel*Frame) : 0.244
Stream size : 631 MiB (90%)
Writing library : XviD 1.2.0SMP (UTC 2006-01-08)

Audio
Format : MPEG Audio
Format version : Version 1
Format profile : Layer 3
Codec ID : 55
Codec ID/Hint : MP3
Duration : 1h 5mn
Bit rate mode : Variable
Bit rate : 131 Kbps
Nominal bit rate : 128 Kbps
Channel(s) : 2 channels
Sampling rate : 48.0 KHz
Resolution : 16 bits
Stream size : 61.5 MiB (9%)
Alignment : Aligned on interleaves
Interleave, duration : 24 ms (0.72 video frame)
Interleave, preload duration : 304 ms
Writing library : LAME3.90.
Encoding settings : ABR

General
Complete name : clit-anal.pornsluts.disc1_cd2.avi
Format : AVI
Format/Info : Audio Video Interleave
File size : 699 MiB
Duration : 57mn 29s
Overall bit rate : 1 701 Kbps
Writing application : VirtualDubMod 1.5.10.2 (build 2540/release)
Writing library : VirtualDubMod build 2540/release

Video
Format : MPEG-4 Visual
Format profile : Streaming Video@L1
Format settings, BVOP : Yes
Format settings, QPel : No
Format settings, GMC : No warppoints
Format settings, Matrix : Default
Codec ID : XVID
Codec ID/Hint : XviD
Duration : 57mn 29s
Bit rate : 1 556 Kbps
Width : 576 pixels
Height : 320 pixels
Display aspect ratio : 16/9
Frame rate : 29.970 fps
Resolution : 24 bits
Colorimetry : 4:2:0
Scan type : Progressive
Bits/(Pixel*Frame) : 0.282
Stream size : 640 MiB (91%)
Writing library : XviD 1.2.0SMP (UTC 2006-01-08)

Audio
Format : MPEG Audio
Format version : Version 1
Format profile : Layer 3
Codec ID : 55
Codec ID/Hint : MP3
Duration : 57mn 29s
Bit rate mode : Variable
Bit rate : 131 Kbps
Channel(s) : 2 channels
Sampling rate : 48.0 KHz
Resolution : 16 bits
Stream size : 53.8 MiB (8%)
Alignment : Aligned on interleaves
Interleave, duration : 24 ms (0.72 video frame)
Interleave, preload duration : 497 ms

General
Complete name : clit-anal.pornsluts.disc1_cd3.avi
Format : AVI
Format/Info : Audio Video Interleave
File size : 695 MiB
Duration : 57mn 20s
Overall bit rate : 1 694 Kbps
Writing application : VirtualDubMod 1.5.10.2 (build 2540/release)
Writing library : VirtualDubMod build 2540/release

Video
Format : MPEG-4 Visual
Format profile : Streaming Video@L1
Format settings, BVOP : Yes
Format settings, QPel : No
Format settings, GMC : No warppoints
Format settings, Matrix : Default
Codec ID : XVID
Codec ID/Hint : XviD
Duration : 57mn 20s
Bit rate : 1 549 Kbps
Width : 576 pixels
Height : 320 pixels
Display aspect ratio : 16/9
Frame rate : 29.970 fps
Resolution : 24 bits
Colorimetry : 4:2:0
Scan type : Progressive
Bits/(Pixel*Frame) : 0.280
Stream size : 635 MiB (91%)
Writing library : XviD 1.2.0SMP (UTC 2006-01-08)

Audio
Format : MPEG Audio
Format version : Version 1
Format profile : Layer 3
Codec ID : 55
Codec ID/Hint : MP3
Duration : 57mn 10s
Bit rate mode : Variable
Bit rate : 131 Kbps
Channel(s) : 2 channels
Sampling rate : 48.0 KHz
Resolution : 16 bits
Stream size : 53.8 MiB (8%)
Alignment : Aligned on interleaves
Interleave, duration : 24 ms (0.72 video frame)
Interleave, preload duration : 515 ms

General
Complete name : clit-anal.pornsluts.disc2.avi
Format : AVI
Format/Info : Audio Video Interleave
File size : 699 MiB
Duration : 1h 38mn
Overall bit rate : 992 Kbps
Writing application : VirtualDubMod 1.5.10.2 (build 2540/release)
Writing library : VirtualDubMod build 2540/release

Video
Format : MPEG-4 Visual
Format profile : Streaming Video@L1
Format settings, BVOP : Yes
Format settings, QPel : No
Format settings, GMC : No warppoints
Format settings, Matrix : Default
Codec ID : XVID
Codec ID/Hint : XviD
Duration : 1h 38mn
Bit rate : 846 Kbps
Width : 576 pixels
Height : 320 pixels
Display aspect ratio : 16/9
Frame rate : 29.970 fps
Resolution : 24 bits
Colorimetry : 4:2:0
Scan type : Progressive
Bits/(Pixel*Frame) : 0.153
Stream size : 596 MiB (85%)
Writing library : XviD 61

Audio
Format : MPEG Audio
Format version : Version 1
Format profile : Layer 3
Codec ID : 55
Codec ID/Hint : MP3
Duration : 1h 38mn
Bit rate mode : Variable
Bit rate : 132 Kbps
Nominal bit rate : 128 Kbps
Channel(s) : 2 channels
Sampling rate : 48.0 KHz
Resolution : 16 bits
Stream size : 92.9 MiB (13%)
Alignment : Aligned on interleaves
Interleave, duration : 24 ms (0.72 video frame)
Interleave, preload duration : 139 ms
Writing library : LAME3.90.
Encoding settings : ABR


 ·  , , FAQ-
:  [ 29--2013 12:17 ]

  

.torrent

.torrent 14 KB


: 2.73 GB
(hash) : 142cd1a7098a67998b07789c1ba787ab2f6f4e4f
··
...

, Anal Pornsluts

S L
·· Anal Pornsluts / (Mike Adriano, Evil Angel) [2011, Gonzo, Anal, Gaping, POV, Ass to Mouth (A2M), 2x DVD9] Galfimbul 1500651630613.98 GB 0 0 1311767903

14:58

27--11

Anal Pornsluts . !

!