Скачать порно через торрент Bad Girls 3 Плохие Девочки 3 UnionPeer.org бесплатно онлайн HD качество

Скачать новое порно 2015, 2014 новинки через торрент UnionPeer.org

Порно торрент бесплатно ЮнионПир.орг

Если у вас наблюдаются проблемы со скриншотами, переходом по ссылками, скачиванием торрентов - проблемы в блокировщике рекламы AdBlock. #хорошегоДня!


Статистика раздачи
Размер:  1.82 GB   |    Зарегистрирован:  4 года 4 месяца   |    .torrent скачан:  117 раз   |   
Раздают:  1  
   
Загрузка...
 
Автор Сообщение

Galfimbul

avatar Galfimbul


Bad Girls 3 / Плохие Девочки 3

Релиз от: Evgen.ip
Год производства: 2009 г. Страна: USA Жанр: Vignettes, Straight Продолжительность: 01:33:14
Субтитры: Нет Язык: Английский
Режиссер: Robby D. Студия: Digital Playground
В ролях:
Ben English, Danny Mountain, David Perry, Evan Stone, Jenaveve Jolie, Jenna Haze, Jesse Jane, Madison Scott, Riley Steele
Описание: | IMDB |
Jesse Jane & Riley Steele, Digital Playground's Bad Girls!
The Baddest Filthiest Of The Bunch! You Wanted It, Now You Got It!
Bad Girls 3 Is Loaded With More Filth And Hardcore Fucking Than Before!
Watch As Riley Steele And Jesse Jane Show You Why Bad Girls Are Heaven To Fuck!
Good Girls Go To Heaven Bad Girls Are Heaven!
Качество видео: BDRip-AVC (исходник) Формат видео: MKV
Видео кодек: AVC Аудио кодек: AC3
Видео: AVC | 16:9 | 1024x576 | 23.976 fps | 2 350 Kbps
Аудио: AC-3 | 48.0 KHz | 6 ch | 448 Kbps
General
Complete name                    : E:\unionpeer.org\Bad Girls 3.BDRip-AVC.Evgen.ip.mkv
Format                           : Matroska
File size                        : 1.82 GiB
Duration                         : 1h 33mn
Overall bit rate                 : 2 800 Kbps
Encoded date                     : UTC 2010-09-13 05:13:07
Writing application              : mkvmerge v3.3.0 ('Language') built on Mar 24 2010 14:59:24
Writing library                  : libebml v0.8.0 + libmatroska v0.9.0

Video
ID                               : 1
Format                           : AVC
Format/Info                      : Advanced Video Codec
Format profile                   : High@L3.2
Format settings, CABAC           : Yes
Format settings, ReFrames        : 8 frames
Muxing mode                      : Container profile=Unknown@3.2
Codec ID                         : V_MPEG4/ISO/AVC
Duration                         : 1h 33mn
Bit rate                         : 2 296 Kbps
Nominal bit rate                 : 2 350 Kbps
Width                            : 1 024 pixels
Height                           : 576 pixels
Display aspect ratio             : 16:9
Frame rate                       : 23.976 fps
Resolution                       : 8 bits
Colorimetry                      : 4:2:0
Scan type                        : Progressive
Bits/(Pixel*Frame)               : 0.162
Stream size                      : 1.49 GiB (82%)
Writing library                  : x264 core 92 r1510 33d382a
Encoding settings                : cabac=1 / ref=8 / deblock=1:-1:-1 / analyse=0x3:0x133 / me=umh / subme=7 / psy=1 / psy_rd=1.00:0.10 / mixed_ref=1 / me_range=16 / chroma_me=1 / trellis=2 / 8x8dct=1 / cqm=0 / deadzone=21,11 / fast_pskip=0 / chroma_qp_offset=-3 / threads=3 / sliced_threads=0 / nr=0 / decimate=1 / interlaced=0 / constrained_intra=0 / bframes=3 / b_pyramid=2 / b_adapt=2 / b_bias=0 / direct=3 / wpredb=1 / wpredp=2 / keyint=250 / keyint_min=25 / scenecut=40 / intra_refresh=0 / rc_lookahead=50 / rc=2pass / mbtree=1 / bitrate=2350 / ratetol=1.0 / qcomp=0.60 / qpmin=10 / qpmax=51 / qpstep=4 / cplxblur=20.0 / qblur=0.5 / ip_ratio=1.40 / aq=1:1.00

Audio
ID                               : 2
Format                           : AC-3
Format/Info                      : Audio Coding 3
Codec ID                         : A_AC3
Duration                         : 1h 33mn
Bit rate mode                    : Constant
Bit rate                         : 448 Kbps
Channel(s)                       : 6 channels
Channel positions                : Front: L C R, Surround: L R, LFE
Sampling rate                    : 48.0 KHz
Stream size                      : 299 MiB (16%)
Language                         : English


Трекер:  [ 27-Май-2013 15:07 ]

  

Скачать .torrent

Размер .torrent файла 18 KB


Размер: 1.82 GB
Хэш (hash) релиза: 778b55773750242272d992d22e77a6347da752ba

bot

Топик был перенесен в форум Гонзо-фильмы

Перенес Galfimbul

Хотите добавить комментарий к записи скачать торрент Bad Girls 3 Плохие Девочки 3

!Обратная связь