Скачать порно через торрент Deep Behind the Scenes with Seymore Butts 1 Между сценами с Сеймур Баттсом UnionPeer.org бесплатно онлайн HD качество

Скачать новое порно 2015, 2014 новинки через торрент UnionPeer.org

Порно торрент бесплатно ЮнионПир.орг

Если у вас наблюдаются проблемы со скриншотами, переходом по ссылками, скачиванием торрентов - проблемы в блокировщике рекламы AdBlock. #хорошегоДня!


Статистика раздачи
Размер:  1003 MB   |    Зарегистрирован:  4 года 2 месяца   |    .torrent скачан:  386 раз   |   
Раздают:  2  
   
Загрузка...
 
Автор Сообщение

Galfimbul

avatar Galfimbul


Deep Behind the Scenes with Seymore Butts 1 / Между сценами с Сеймур Баттсом

Год производства: 1996 г.
Страна: США
Жанр: Гонзо
Продолжительность: 02:16:44
Язык: Английский

Режиссер: Seymore Butts
Студия: Ultimate Video

В ролях:
Actresses
Caressa Savage [LezOnly]
Christi Lake [Bald]
Crystal Gold
Felecia [LezOnly]
Madelyn Night [LezOnly]
Melissa Hill [Facial]
Nici Sterling
Sid Deuce
Stephanie Swift
Taylor Hayes [Anal Facial]

Actors
Alex Sanders
Jonathan Morgan
Micky Ray
Peter North
Seymore Butts
Steven St. Croix
TT Boy

Описание:
Фильм-репортаж о съёмках Palace of Pleasure

Разбивка по сценам:
Сцена 1. Nici Sterling, Peter North
Сцена 2. Melissa Hill, Steven St. Croix
Сцена 3. Crystal Gold, Stephanie Swift, Alex Sanders
Сцена 4. Madelyn Night, Nici Sterling
Сцена 5. Crystal Gold, Steven St. Croix
Сцена 6. Melissa Hill, Nici Sterling, Jonathan Morgan
Сцена 7. Caressa Savage, Christi Lake, Crystal Gold, Sid Deuce
Сцена 8. Caressa Savage, Crystal Gold
Сцена 9. Christi Lake, Stephanie Swift, Micky Ray
Сцена 10. Taylor Hayes, Seymore Butts
Сцена 11. Crystal Gold, Steven St. Croix, TT Boy
Сцена 12. Caressa Savage, Christi Lake, Crystal Gold
Сцена 13. Caressa Savage, Felecia, Madelyn Night
Сцена 14. Melissa Hill, Alex Sanders
Сцена 15. Taylor Hayes, Seymore Butts
Format : AVI
Format/Info : Audio Video Interleave
File size : 1 003 MiB
Duration : 2h 21mn
Overall bit rate : 992 Kbps
Video
Format : MPEG-4 Visual
Format settings, BVOP : Yes
Format settings, QPel : No
Format settings, GMC : No warppoints
Format settings, Matrix : Default (H.263)
Muxing mode : Packed bitstream
Codec ID : DX50
Codec ID/Hint : DivX 5
Duration : 2h 16mn
Bit rate : 891 Kbps
Width : 640 pixels
Height : 480 pixels
Display aspect ratio : 4/3
Frame rate : 29.970 fps
Resolution : 24 bits
Colorimetry : 4:2:0
Scan type : Progressive
Bits/(Pixel*Frame) : 0.097
Stream size : 871 MiB (87%)
Title : Videostream
Writing library : DivX 5.1.0 (UTC 2003-09-02)
Audio
Format : MPEG Audio
Format version : Version 1
Format profile : Layer 3
Codec ID : 55
Codec ID/Hint : MP3
Duration : 2h 21mn
Bit rate mode : Constant
Bit rate : 128 Kbps
Channel(s) : 2 channels
Sampling rate : 48.0 KHz
Resolution : 16 bits
Stream size : 125 MiB (12%)
Alignment : Split accross interleaves
Interleave, duration : 968 ms (29.00 video frames)
Title : Audiostream 1
Качество видео: DVDRip
Формат видео: AVI
Видео кодек: DivX
Аудио кодек: MP3
Видео: DivX 5 640x480 29.97fps
Аудио: MPEG Audio Layer 3 48000Hz stereo 128Kbps
Здесь 2-ая часть

Трекер:  [ 27-Май-2013 15:22 ]

  

Скачать .torrent

Размер .torrent файла 20 KB


Размер: 1003 MB
Хэш (hash) релиза: 010a944dd9edf619edc240c6874410ebe099a286

bot

Топик был перенесен в форум Гонзо-фильмы

Перенес Galfimbul

Хотите добавить комментарий к записи скачать торрент Deep Behind the Scenes with Seymore Butts 1 Между сценами с Сеймур Баттсом

!Обратная связь