Скачать порно через торрент Pump My Ass Full of Cum 2 Наполни Мою Задницу Полностью Спермой 2 UnionPeer.org бесплатно онлайн HD качество

Скачать новое порно 2015, 2014 новинки через торрент UnionPeer.org

Порно торрент бесплатно ЮнионПир.орг

Если у вас наблюдаются проблемы со скриншотами, переходом по ссылками, скачиванием торрентов - проблемы в блокировщике рекламы AdBlock. #хорошегоДня!


Статистика раздачи
Размер:  2.64 GB   |    Зарегистрирован:  4 года 2 месяца   |    .torrent скачан:  373 раза   |   
Раздают:  1  
   
Загрузка...
 
Автор Сообщение

Galfimbul

avatar Galfimbul


Pump My Ass Full of Cum 2
Наполни Мою Задницу Полностью Спермой 2


Год производства: 2009 г. Страна: USA Жанр: All Sex, Anal, Gonzo Продолжительность: 03:14:12
Субтитры: Нет Язык: Английский
Режиссер: Jules Jordan Студия: Jules Jordan Video
В ролях:
Jenna Haze, Hillary Scott, Aubrey Addams, Andi Anderson, Missy Stone.
Описание: | IMDB |
These Girls Ooze, Drip and Squirt Huge Loads from their Asses!
Asses Get Fucked and Filled with Cum!
Clean Up Aisle 12, Please!
Качество видео: BDRip-AVC Формат видео: MKV
Видео кодек: AVC Аудио кодек: AC3
Видео: AVC | 16:9 | 1024x576 | 29.970 fps | 1 750 Kbps
Аудио: AC3 | 48.0 KHz | 2 ch | 192 Kbps
General
Complete name                    : D:\unionpeer.org\Pump.My.Ass.Full.Of.Cum.2.BDRip-AVC.Milashka.mkv
Format                           : Matroska
File size                        : 2.64 GiB
Duration                         : 3h 14mn
Overall bit rate                 : 1 944 Kbps
Encoded date                     : UTC 2010-10-01 11:10:07
Writing application              : mkvmerge v3.3.0 ('Language') built on Mar 24 2010 14:59:24
Writing library                  : libebml v0.8.0 + libmatroska v0.9.0

Video
ID                               : 1
Format                           : AVC
Format/Info                      : Advanced Video Codec
Format profile                   : High@L3.1
Format settings, CABAC           : Yes
Format settings, ReFrames        : 4 frames
Muxing mode                      : Container profile=Unknown@3.1
Codec ID                         : V_MPEG4/ISO/AVC
Duration                         : 3h 14mn
Bit rate                         : 1 713 Kbps
Nominal bit rate                 : 1 750 Kbps
Width                            : 1 024 pixels
Height                           : 576 pixels
Display aspect ratio             : 16:9
Frame rate                       : 29.970 fps
Resolution                       : 8 bits
Colorimetry                      : 4:2:0
Scan type                        : Progressive
Bits/(Pixel*Frame)               : 0.097
Stream size                      : 2.32 GiB (88%)
Writing library                  : x264 core 92 r1510 33d382a
Encoding settings                : cabac=1 / ref=4 / deblock=1:0:0 / analyse=0x3:0x113 / me=umh / subme=7 / psy=1 / psy_rd=1.00:0.00 / mixed_ref=1 / me_range=32 / chroma_me=1 / trellis=0 / 8x8dct=1 / cqm=0 / deadzone=21,11 / fast_pskip=0 / chroma_qp_offset=-2 / threads=3 / sliced_threads=0 / nr=0 / decimate=1 / interlaced=0 / constrained_intra=0 / bframes=2 / b_pyramid=2 / b_adapt=0 / b_bias=0 / direct=3 / wpredb=1 / wpredp=0 / keyint=250 / keyint_min=25 / scenecut=40 / intra_refresh=0 / rc_lookahead=60 / rc=2pass / mbtree=1 / bitrate=1750 / ratetol=1.0 / qcomp=0.60 / qpmin=10 / qpmax=51 / qpstep=4 / cplxblur=20.0 / qblur=0.5 / vbv_maxrate=14000 / vbv_bufsize=14000 / ip_ratio=1.40 / aq=1:1.00 / nal_hrd=none

Audio
ID                               : 2
Format                           : AC-3
Format/Info                      : Audio Coding 3
Codec ID                         : A_AC3
Duration                         : 3h 14mn
Bit rate mode                    : Constant
Bit rate                         : 192 Kbps
Channel(s)                       : 2 channels
Channel positions                : L R
Sampling rate                    : 48.0 KHz
Stream size                      : 267 MiB (10%)


Трекер:  [ 25-Май-2013 17:02 ]

  

Скачать .torrent

Размер .torrent файла 13 KB


Размер: 2.64 GB
Хэш (hash) релиза: 422a3e07c50f198893703bbafe23d8c87fc8319b

bot

Топик был перенесен в форум Гонзо-фильмы

Перенес Galfimbul

Хотите добавить комментарий к записи скачать торрент Pump My Ass Full of Cum 2 Наполни Мою Задницу Полностью Спермой 2

!Обратная связь