Скачать через торрент Уличный боец 2 Street Fighter II: Movie бесплатно Аниме Все серии на русском torrent

Если у вас наблюдаются проблемы со скриншотами, переходом по ссылками, скачиванием торрентов - проблемы в блокировщике рекламы AdBlock. #хорошегоДня!


Статистика раздачи
Размер:  3.68 GB   |    Зарегистрирован:  4 года 5 месяцев   |    .torrent скачан:  53 раза   |   
Раздают:  1  
   
Загрузка...
 
Автор Сообщение

Galfimbul

avatar Galfimbul


Уличный боец 2
Год выпуска: 1994
Страна:
Жанры: сёнэн, боевые искусства, приключения
Продолжительность: 01:41:26.
Перевод:

русские субтитры от Алексис
английские субтитры с BD
Озвучка:

Профессиональный (полное дублирование) от ОРТ
Профессиональный многоголосый Селена Интернешнл по заказу ТВ3
Авторский одноголосый (муж.) Сергей Визгунов
Режиссер: Гисабуро Сугии / Gisaburo Sugii
Сценарий: Имай Кэнъити
Студия:
Описание: Преступный синдикат "Теневой закон" собирает данные об уличных бойцах со всего мира и сейчас их основной целью является молодой боец Риу. Но найти его не так-то просто, и "Теневой закон" похищает лучшего друга Риу - Кена. Тем временем Интерпол и американские военные объединяются, чтобы покончить с "Теневым законом".
Качество: BDRip (DERANGED)

Формат: MKV

Тип видео: Без хардсаба

Видео кодек: H.264
Аудио кодек: AC3

Видео: H.264, 3 345 Kbps, 1280x696, 23.976 fps

Аудио #1: - AС3, 640 Kbps, 48KHz, 6ch
Аудио #2: - AС3, 640 Kbps, 48KHz, 6ch
Аудио #3: - AС3, 192 Kbps, 48KHz, 2ch [Дублированная ОРТ]
Аудио #4: - AС3, 192 Kbps, 48KHz, 2ch [Многоголосая, закадровая ТВЗ]
Аудио #5: - AС3, 192 Kbps, 48KHz, 2ch [Одноголосый закадровый Сергей Визгунов]
General
Unique ID : 218140802969033745535612908982972255597 (0xA41C63F4BB8EA6D8855C69E11C510D6D)
Complete name : J:\Аниме\Полнометражные аниме\Street Fighter II The Movie [BD 720p]\Street.Fighter.II.The.Movie.1994.720p.BluRay.x264-DERANGED.mkv
Format : Matroska
Format version : Version 2
File size : 2.82 GiB
Duration : 1h 41mn
Overall bit rate : 3 985 Kbps
Encoded date : UTC 2013-03-27 05:21:21
Writing application : mkvmerge v5.7.0 (''The Whirlwind'') built on Jul 29 2012 15:12:35
Writing library : libebml v1.2.3 + libmatroska v1.3.0

Video
ID : 1
Format : AVC
Format/Info : Advanced Video Codec
Format profile : High@L4.1
Format settings, CABAC : Yes
Format settings, ReFrames : 5 frames
Codec ID : V_MPEG4/ISO/AVC
Duration : 1h 41mn
Bit rate : 3 345 Kbps
Width : 1 280 pixels
Height : 696 pixels
Display aspect ratio : 1.85:1
Frame rate mode : Constant
Frame rate : 23.976 fps
Color space : YUV
Chroma subsampling : 4:2:0
Bit depth : 8 bits
Scan type : Progressive
Bits/(Pixel*Frame) : 0.157
Stream size : 2.31 GiB (82%)
Writing library : x264 core 130 r2273 b3065e6
Encoding settings : cabac=1 / ref=5 / deblock=1:0:0 / analyse=0x3:0x133 / me=umh / subme=8 / psy=1 / psy_rd=1.00:0.00 / mixed_ref=1 / me_range=16 / chroma_me=1 / trellis=1 / 8x8dct=1 / cqm=0 / deadzone=21,11 / fast_pskip=0 / chroma_qp_offset=-2 / threads=16 / lookahead_threads=2 / sliced_threads=0 / nr=0 / decimate=1 / interlaced=0 / bluray_compat=0 / constrained_intra=0 / bframes=3 / b_pyramid=2 / b_adapt=1 / b_bias=0 / direct=1 / weightb=1 / open_gop=0 / weightp=2 / keyint=250 / keyint_min=25 / scenecut=40 / intra_refresh=0 / rc_lookahead=40 / rc=2pass / mbtree=1 / bitrate=3345 / ratetol=1.0 / qcomp=0.60 / qpmin=0 / qpmax=69 / qpstep=4 / cplxblur=20.0 / qblur=0.5 / ip_ratio=1.40 / aq=1:1.00
Language : Japanese
Default : No
Forced : No

Audio
ID : 2
Format : AC-3
Format/Info : Audio Coding 3
Mode extension : CM (complete main)
Format settings, Endianness : Big
Codec ID : A_AC3
Duration : 1h 41mn
Bit rate mode : Constant
Bit rate : 640 Kbps
Channel(s) : 2 channels
Channel positions : Front: L R
Sampling rate : 48.0 KHz
Bit depth : 16 bits
Compression mode : Lossy
Stream size : 464 MiB (16%)
Language : Japanese
Default : Yes
Forced : No

Text
ID : 3
Format : UTF-8
Codec ID : S_TEXT/UTF8
Codec ID/Info : UTF-8 Plain Text
Language : English
Default : No
Forced : No


Трекер:  [ 27-Мар-2013 18:29 ]

  

Скачать .torrent

Размер .torrent файла 19 KB


Размер: 3.68 GB
Хэш (hash) релиза: bd54bcba450cc344cb13fe95ae6669d939b1ea41
Подписка на обновления:

Торренты, похожие на Уличный боец 2 Street Fighter II: Movie скачать торрент

Форум Название Автор Размер S L Добавлен
Аниме | Blu-Ray и BDRemux ·· Уличный боец 2 / Street Fighter II: Movie [Movie] [Без хардсаба] [RUS(int),ENG(int),JAP+SUB] [1994 г., Боевые искусства, приключения, BDRemux] [1080p] Supportive 2054467544819.13 GB 0 0 1364246127

00:15

26-Мар-13

Аниме | HD Rips ·· Уличный боец 2 / Street Fighter II: The Animated Movie [Movie] [без хардсаба] [RUS(ext), ENG, JAP+SUB] [1994, Боевые искусства, приключения, BDRip] [1080p] Galfimbul 78126888117.28 GB 0 0 1491570037

16:00

7-Апр-17

Аниме | Rips ·· Уличный боец 2 / Street Fighter II: The Animated Movie [Movie] [без хардсаба] [RUS(int), RUS(ext), ENG, JAP+SUB] [1994, Боевые искусства, приключения, DVDRip] Galfimbul 27935400552.6 GB 0 0 1490968045

16:47

31-Мар-17

Аниме | Rips ·· Уличный боец 2 / Street Fighter II: The Animated Movie [Movie] [Без хардсаба] [RUS(int), JAP+SUB] [1994 г., сёнэн, боевые искусства, приключения, BDRip] [720p] [HD] Galfimbul 57006299625.31 GB 0 0 1420123569

17:46

1-Янв-15

Аниме | Rips ·· Уличный боец 2 / Street Fighter II: The Animated Movie [Movie] [без хардсаба] [RUS(int), RUS(ext), ENG, JAP] [1994 г., Боевые искусства, приключения, DVDRip] [HWP] Galfimbul 25858764222.41 GB 0 0 1351182300

19:25

25-Окт-12

Еще никто не оставлял запись к записи скачать торрент Уличный боец 2 Street Fighter II: Movie . Будь первым!

!Обратная связь