Скачать порно через торрент Oppai Heart: Kanojo wa Kedamono Hatsujouki!? Сердечные груди: Похотливые потребности женского тела UnionPeer.org бесплатно онлайн HD качество

Скачать новое порно 2015, 2014 новинки через торрент UnionPeer.org

Порно торрент бесплатно ЮнионПир.орг

Если у вас наблюдаются проблемы со скриншотами, переходом по ссылками, скачиванием торрентов - проблемы в блокировщике рекламы AdBlock. #хорошегоДня!


Статистика раздачи
Размер:  7.61 GB   |    Зарегистрирован:  4 года 4 месяца   |    .torrent скачан:  145 раз   |   
Раздают:  1  
   
Загрузка...
 
Автор Сообщение

Supportive

avatar Supportive


おっぱいハート~彼女はケダモノ発情期ッ!?~
Oppai Heart: Kanojo wa Kedamono Hatsujouki!?
Сердечные груди: Похотливые потребности женского тела


Год выпуска: 2011
Страна: Япония
Жанр: big tits, incest, milk, oral, pregnant, school, straight, students, titfuck
Продолжительность: >2 эп. по 30 мин.
Субтитры: Отсутствуют
Цензура: Присутствует
Студия: Nihikime no Dozeu
Описание:
Akino Miya is Student Council President and very popular. Not only is she beautiful and busty, but she also has a naive and clumsy side which is especially endearing. She is also very affectionate towards her brother Ryuuya, who offsets her flightiness by virtue of being a practical person.

One day, the two of them, along with the other members of the Student Council, accidentally drink "Wild Juice", a drug developed by teacher Makihara Rieko. Turns out that Wild Juice is a very powerful aphrodisiac...
Информационные ссылки: AniDB || MAL || World Art || ХентайМаг
Исходник: DVD-5
Видео: MPEG2 | NTSC | 16x9 | 720x480 | 7200 Kbps
Аудио JAP: AC-3 | 48000Hz | 192 Kbps | 2ch
01. Volume 1
02. Volume 2
General
Complete name : H:\VIDEO_TS\VTS_01_1.VOB
Format : MPEG-PS
File size : 1 024 MiB
Duration : 19mn 1s
Overall bit rate : 7 528 Kbps

Video
ID : 224 (0xE0)
Format : MPEG Video
Format version : Version 2
Format profile : Main@Main
Format settings, BVOP : Yes
Format settings, Matrix : Custom
Duration : 19mn 1s
Bit rate : 7 200 Kbps
Width : 720 pixels
Height : 480 pixels
Display aspect ratio : 16:9
Frame rate : 29.970 fps
Standard : NTSC
Color space : YUV
Chroma subsampling : 4:2:0
Bit depth : 8 bits
Scan type : Interlaced
Scan order : Top Field First
Compression mode : Lossy
Bits/(Pixel*Frame) : 0.695
Stream size : 977 MiB (95%)

Audio
ID : 189 (0xBD)-128 (0x80)
Format : AC-3
Format/Info : Audio Coding 3
Mode extension : CM (complete main)
Muxing mode : DVD-Video
Duration : 19mn 0s
Bit rate mode : Constant
Bit rate : 192 Kbps
Channel(s) : 2 channels
Channel positions : Front: L R
Sampling rate : 48.0 KHz
Bit depth : 16 bits
Compression mode : Lossy
Stream size : 26.1 MiB (3%)


Исходник: DVD-5
Видео: MPEG2 | NTSC | 16x9 | 720x480 | 7200 Kbps
Аудио JAP: AC-3 | 48000Hz | 192 Kbps | 2ch
General
Complete name : H:\VIDEO_TS\VTS_01_1.VOB
Format : MPEG-PS
File size : 1 024 MiB
Duration : 19mn 0s
Overall bit rate : 7 528 Kbps

Video
ID : 224 (0xE0)
Format : MPEG Video
Format version : Version 2
Format profile : Main@Main
Format settings, BVOP : Yes
Format settings, Matrix : Custom
Duration : 19mn 0s
Bit rate : 7 200 Kbps
Width : 720 pixels
Height : 480 pixels
Display aspect ratio : 16:9
Frame rate : 29.970 fps
Standard : NTSC
Color space : YUV
Chroma subsampling : 4:2:0
Bit depth : 8 bits
Scan type : Interlaced
Scan order : Top Field First
Compression mode : Lossy
Bits/(Pixel*Frame) : 0.695
Stream size : 977 MiB (95%)

Audio
ID : 189 (0xBD)-128 (0x80)
Format : AC-3
Format/Info : Audio Coding 3
Mode extension : CM (complete main)
Muxing mode : DVD-Video
Duration : 19mn 0s
Bit rate mode : Constant
Bit rate : 192 Kbps
Channel(s) : 2 channels
Channel positions : Front: L R
Sampling rate : 48.0 KHz
Bit depth : 16 bits
Compression mode : Lossy
Stream size : 26.1 MiB (3%)


Трекер:  [ 26-Мар-2013 19:59 ]

  

Скачать .torrent

Размер .torrent файла 38 KB


Размер: 7.61 GB
Хэш (hash) релиза: ea8bc0b62008ff43308889a5a4d57260321738ad

Торренты, похожие на Oppai Heart: Kanojo wa Kedamono Hatsujouki!? Сердечные груди: Похотливые потребности женского тела скачать торрент

Форум Название Автор Размер S L Добавлен
Хентай, порно и эротические мультфильмы ·· Oppai Heart: Kanojo wa Kedamono Hatsujouki!? / Сердечные груди: Похотливые потребности женского тела (Hasegawa Michio, BISHOP, Nihikime no Dozeu) (ep.1-2)[cen] [2011-2012,BigTits,Milk,Oral,Titfuck,School,Incest,Students,DVDRip] [jap/eng/rus(1)][576p] Galfimbul 915919119873 MB 0 0 1330931160

10:06

5-Мар-12

bot

Топик был перенесен в форум Хентай | С цензурой

Перенес Supportive

Хотите добавить комментарий к записи скачать торрент Oppai Heart: Kanojo wa Kedamono Hatsujouki!? Сердечные груди: Похотливые потребности женского тела

!Обратная связь