Скачать через торрент Ещё вчера Only Yesterday бесплатно Аниме Все серии на русском torrent

Если у вас наблюдаются проблемы со скриншотами, переходом по ссылками, скачиванием торрентов - проблемы в блокировщике рекламы AdBlock. #хорошегоДня!


Статистика раздачи
Размер:  11.54 GB   |    Зарегистрирован:  4 года 5 месяцев   |    .torrent скачан:  43 раза   |   
Раздают:  1  
   
Загрузка...
 
Автор Сообщение

Galfimbul

avatar Galfimbul


Ещё вчера / Only Yesterday / Omoide Poro-poro

Страна: Япония
Год выпуска: 1991 г.
Жанр: романтика, драма, школа
Тип: Movie
Продолжительность: 01:58:48
Режиссер: Такахата Исао
Студия:

Описание: Япония восьмидесятых годов прошлого века. Таэко - одинокая молодая женщина из Токио, типичная служащая в крупной компании, вертящаяся в бешеном ритме столичной жизни. Когда она отправилась в отпуск на ферму своей старшей замужней сестры, переехавшей к мужу в сельскую глубинку, и погрузилась в неспешные деревенские будни, на Таэко нахлынула волна ярких воспоминаний о школьной юности конца шестидесятых, казалось, давно стёртых в памяти. С удовольствием работая в поле на фоне чудесной природы в окружении доброжелательных фермеров, она то и дело переносится в то счастливое время, когда жизнь казалась простой и понятной. Тёплые воспоминания детской рукой словно направляют Таэко, помогая ей принять трудные и важные решения о её будущем...

World Art

Качество: BDRip
Тип релиза: Без хардсаба
Формат видео: MKV
Наличие линковки: Нет
Энкод: pavel-b
Сборка релиза: Tuzik55555
Видео: AVC, 10 bit, 1920x1080, ~11980 kbps, 23.976 fps
Аудио 1: JP, DTS, 2ch, ~1555 kbps, 48 kHz (в составе контейнера) [Original]
Аудио 2: RU, AC3, 2ch, ~192 kbps, 48 kHz (в составе контейнера) [MVO RUSCICO]
Аудио 3: RU, AC3, 2ch, ~192 kbps, 48 kHz (в составе контейнера) [AVO Толстобров]
Субтитры 1: встроенные, русские [RUSCICO]
Субтитры 2: встроенные, английские [Disney]
Общее
Уникальный идентификатор : 192703637702253872776122322699118104704 (0x90F95EE13C2313B3A798C89E0A06D080)
Полное имя : E:\Only yesterday (1991).mkv
Формат : Matroska
Версия формата : Version 4 / Version 2
Размер файла : 11,5 Гбайт
Продолжительность : 1 ч. 58 м.
Режим общего битрейта : Переменный
Общий поток : 13,9 Мбит/сек
Название фильма : [Pavel-Raws] Omoide Poro-poro (1991)
Дата кодирования : UTC 2013-03-22 16:05:12
Программа кодирования : mkvmerge v6.0.0 (''Coming Up For Air'') built on Jan 20 2013 09:52:00
Библиотека кодирования : libebml v1.3.0 + libmatroska v1.4.0
Attachment : Yes / Yes

Видео
Идентификатор : 1
Формат : AVC
Формат/Информация : Advanced Video Codec
Профиль формата : High 10@L4.0
Параметр CABAC формата : Да
Параметр ReFrames формата : 4 кадра
Идентификатор кодека : V_MPEG4/ISO/AVC
Продолжительность : 1 ч. 58 м.
Битрейт : 11,7 Мбит/сек
Ширина : 1920 пикселей
Высота : 1080 пикселей
Соотношение сторон : 16:9
Режим частоты кадров : Постоянный
Частота кадров : 23,976 кадра/сек
Цветовое пространство : YUV
Субдискретизация насыщенности : 4:2:0
Битовая глубина : 10 бит
Тип развёртки : Прогрессивная
Бит/(Пиксели*Кадры) : 0.235
Размер потока : 9,71 Гбайт (84%)
Библиотека кодирования : x264 core 125 r2200+677M 3a754e7
Настройки программы : cabac=1 / ref=3 / deblock=1:-1:-1 / analyse=0x3:0x133 / me=umh / subme=7 / psy=1 / fade_compensate=0.00 / psy_rd=0.60:0.00 / mixed_ref=1 / me_range=16 / chroma_me=1 / trellis=2 / 8x8dct=1 / cqm=0 / deadzone=21,11 / fast_pskip=1 / chroma_qp_offset=-2 / threads=3 / lookahead_threads=1 / sliced_threads=0 / nr=0 / decimate=0 / interlaced=0 / bluray_compat=0 / constrained_intra=0 / fgo=0 / bframes=3 / b_pyramid=2 / b_adapt=2 / b_bias=0 / direct=3 / weightb=1 / open_gop=0 / weightp=2 / keyint=250 / keyint_min=23 / scenecut=40 / intra_refresh=0 / rc_lookahead=40 / rc=crf / mbtree=1 / crf=16.0000 / qcomp=0.70 / qpmin=0 / qpmax=47 / qpstep=4 / ip_ratio=1.40 / aq=1:0.90
Язык : English
Default : Да
Forced : Нет

Аудио #1
Идентификатор : 2
Формат : DTS
Формат/Информация : Digital Theater Systems
Профиль формата : MA / Core
Идентификатор кодека : A_DTS
Продолжительность : 1 ч. 58 м.
Вид битрейта : Переменный
Битрейт : 1555 Кбит/сек / 1510 Кбит/сек
Каналы : 2 канала
Расположение каналов : Front: L R
Частота : 48,0 КГц
Битовая глубина : 24 бит
Метод сжатия : Без потерь / Lossy
Язык : Japanese
Default : Нет
Forced : Нет

Аудио #2
Идентификатор : 3
Формат : AC-3
Формат/Информация : Audio Coding 3
Расширение режима : CM (complete main)
Параметр Endianness формата : Big
Идентификатор кодека : A_AC3
Продолжительность : 1 ч. 58 м.
Вид битрейта : Постоянный
Битрейт : 192 Кбит/сек
Каналы : 2 канала
Расположение каналов : Front: L R
Частота : 48,0 КГц
Битовая глубина : 16 бит
Метод сжатия : С потерями
Размер потока : 163 Мбайт (1%)
Заголовок : MVO RUSCICO
Язык : Russian
Default : Да
Forced : Нет

Аудио #3
Идентификатор : 4
Формат : AC-3
Формат/Информация : Audio Coding 3
Расширение режима : CM (complete main)
Параметр Endianness формата : Big
Идентификатор кодека : A_AC3
Продолжительность : 1 ч. 58 м.
Вид битрейта : Постоянный
Битрейт : 192 Кбит/сек
Каналы : 2 канала
Расположение каналов : Front: L R
Частота : 48,0 КГц
Битовая глубина : 16 бит
Метод сжатия : С потерями
Размер потока : 163 Мбайт (1%)
Заголовок : AVO Толстобров
Язык : Russian
Default : Нет
Forced : Нет

Текст #1
Идентификатор : 5
Формат : ASS
Идентификатор кодека : S_TEXT/ASS
Идентификатор кодека/Информация : Advanced Sub Station Alpha
Метод сжатия : Без потерь
Заголовок : RUSCICO
Язык : Russian
Default : Да
Forced : Нет

Текст #2
Идентификатор : 6
Формат : ASS
Идентификатор кодека : S_TEXT/ASS
Идентификатор кодека/Информация : Advanced Sub Station Alpha
Метод сжатия : Без потерь
Заголовок : Disney
Язык : English
Default : Нет
Forced : Нет


Трекер:  [ 23-Мар-2013 13:19 ]

  

Скачать .torrent

Размер .torrent файла 29 KB


Размер: 11.54 GB
Хэш (hash) релиза: 458dcc3d91ba531340fe97dc0dc4394aae878880
Подписка на обновления:

Еще никто не оставлял запись к записи скачать торрент Ещё вчера Only Yesterday . Будь первым!

!Обратная связь