Скачать через торрент Маги - волшебный лабиринт Magi бесплатно Аниме Все серии на русском torrent

Если у вас наблюдаются проблемы со скриншотами, переходом по ссылками, скачиванием торрентов - проблемы в блокировщике рекламы AdBlock. #хорошегоДня!


Статистика раздачи
Размер:  3.34 GB   |    Зарегистрирован:  4 года 8 месяцев   |    .torrent скачан:  27 раз   |   
Раздают:  1  
   
Загрузка...
 
Автор Сообщение

Galfimbul

avatar Galfimbul



Год выпуска: 2012
Страна: Япония
Жанр: приключения, комедия, фэнтези, сёнэн
Продолжительность: 26 эп. по 24 мин.
Перевод:

русские субтитры от Firegorn-Team (полные/вспомогательные)
переводчики: Hiroshi-kun, Redgar-firegorn, редакторы: Igorek1102, Pat-Rica
Режиссер: Масунари Кодзи
Студия: A-1 Pictures Inc.
Описание:
По всему миру «арабских ночей» высятся несокрушимые башни, полные сокровищ и магических предметов. Откуда они взялись – неясно, но любой оставшийся в живых «покоритель донжонов» становится богат и знаменит. Именно такой судьбой грезит веселый Али-Баба, в одно прекрасное утро встретивший малыша, кушавшего в его повозке хозяйские арбузы. Аладдин, юный маг, вырвавшийся из храма, где рос в одиночестве, парнем оказался хорошим, но слегка наивным и жизни не знающим. Если бы не джинн Уго, сидевший во флейте Аладдина, в последующих приключениях ребята точно бы потеряли головы, а так и живы остались, и от злодеев ушли, и красотку прихватили за компанию!

На Востоке жизнь жестока. Теперь скитальцам надо надеяться только на себя, работая рука об руку с друзьями-соперниками, хитрыми ворами и коварными властителями. Впрочем, Аладдин, Али-Баба и даже вчерашняя рабыня Марджана не так просты, как кажутся, и могут как следует удивить. Донжонов еще много, стран и морей в мире сериала еще больше, есть где пообщаться с джиннами, заняться политикой и отыскать новые тайны и чудеса. В конце концов, Шахерезады-рассказчицы в этом мире не было, и временные рамки героям никто не ставил!
© Hollow, World Art
Информационные ссылки: AniDB || World Art || MAL
Качество: BDRip
Энкод: Winter - RG Pantheon
Тип видео: без хардсаба
Формат: mkv
Видео: x264 (Hi10p), 1280x720, ~2600 Kbps, 23.976 fps
Аудио JAP: Vorbis, 48000Hz, ~256 Kbps, 2ch
Аудио RUS 1-6: AC3, 48000Hz, ~192 Kbps, 2ch
одноголосая (муж.) от JAM (Animedia)
одноголосая (муж.) от MCShamaN (AniDub)

двухголосая (муж./жен.) от Sad_kit & Vina (Anything-group)
двухголосая (муж./жен.) от Shoker & Neotopia (Anilibria)
двухголосая (муж./жен.) от MifSnaiper & NASTR (MCA & SeM)
двухголосая (жен./муж.) от Mirra & Mistake (Opendub)
01. Aladdin and Alibaba
02. Dungeon Suite
03. The Sorceror of Creation
04. People of the Plains
Общее
Уникальный идентификатор : 215142351609482242122670628764348137711 (0xA1DAE8E3DF5E6169B380166FDE0940EF)
Полное имя : Z:\Anime\720p\Magi [BD] [720p]\[Winter] Magi 02 [BDrip 1280x720 x264 Vorbis].mkv
Формат : Matroska
Версия формата : Version 2
Размер файла : 655 Мбайт
Продолжительность : 24 м.
Режим общего битрейта : Переменный
Общий поток : 3720 Кбит/сек
Дата кодирования : UTC 2013-02-03 06:58:38
Программа кодирования : mkvmerge v2.9.8 (''C''est le bon'') built on Aug 13 2009 12:49:06
Библиотека кодирования : libebml v0.7.7 + libmatroska v0.8.1

Видео
Идентификатор : 1
Формат : AVC
Формат/Информация : Advanced Video Codec
Профиль формата : High 10@L4.1
Параметр CABAC формата : Да
Параметр ReFrames формата : 9 кадров
Идентификатор кодека : V_MPEG4/ISO/AVC
Продолжительность : 24 м.
Битрейт : 3390 Кбит/сек
Ширина : 1280 пикселей
Высота : 720 пикселей
Соотношение сторон : 16:9
Режим частоты кадров : Постоянный
Частота кадров : 23,976 кадра/сек
Цветовое пространство : YUV
Субдискретизация насыщенности : 4:2:0
Битовая глубина : 10 бит
Тип развёртки : Прогрессивная
Бит/(Пиксели*Кадры) : 0.153
Размер потока : 597 Мбайт (91%)
Библиотека кодирования : x264 core 129 r2230 1cffe9f
Настройки программы : cabac=1 / ref=9 / deblock=1:-2:-2 / analyse=0x3:0x133 / me=umh / subme=9 / psy=1 / psy_rd=0.90:0.00 / mixed_ref=1 / me_range=24 / chroma_me=1 / trellis=2 / 8x8dct=1 / cqm=0 / deadzone=21,11 / fast_pskip=1 / chroma_qp_offset=-2 / threads=6 / lookahead_threads=1 / sliced_threads=0 / nr=0 / decimate=0 / interlaced=0 / bluray_compat=0 / constrained_intra=0 / bframes=8 / b_pyramid=2 / b_adapt=2 / b_bias=0 / direct=1 / weightb=1 / open_gop=0 / weightp=2 / keyint=250 / keyint_min=23 / scenecut=40 / intra_refresh=0 / rc=crf / mbtree=0 / crf=15.8 / qcomp=0.70 / qpmin=9 / qpmax=40 / qpstep=4 / ip_ratio=1.40 / pb_ratio=1.30 / aq=1:0.90
Default : Нет
Forced : Нет

Аудио
Идентификатор : 2
Формат : Vorbis
Параметр Floor формата : 1
Идентификатор кодека : A_VORBIS
Продолжительность : 24 м.
Вид битрейта : Переменный
Битрейт : 256 Кбит/сек
Каналы : 2 канала
Частота : 48,0 КГц
Метод сжатия : С потерями
Размер потока : 45,1 Мбайт (7%)
Библиотека кодирования : libVorbis (Schaufenugget) (20101101 (Schaufenugget))
Язык : Japanese
Default : Да
Forced : Нет




Трекер:  [ 23-Мар-2013 13:20 ]

  

Скачать .torrent

Размер .torrent файла 21 KB


Размер: 3.34 GB
Хэш (hash) релиза: f351a588c217264836a97b82635d4a1caad5c4dd
Подписка на обновления:

Торренты, похожие на Маги - волшебный лабиринт Magi скачать торрент

Форум Название Автор Размер S L Добавлен
Аниме | HD Rips ·· Маги / Magi / Маги - волшебный лабиринт / Magi - Labyrinth of Magic [TV] [1-3 из 12] [Без хардсаба] [RUS(int), JAP, SUB] [2012 г., приключения, комедия, фэнтези, сёнэн, HDTVRip] [720p] Polarnik 11940301921.11 GB 0 0 1351158720

12:52

25-Окт-12

Аниме | Rips ·· Маги - волшебный лабиринт / Magi - Labyrinth of Magic [TV] [25 из 25] [Без хардсаба] [JAP, RUS(ext), SUB] [2012 г., приключения, комедия, фэнтези, сёнэн, HDTVRip] damien1990 1130867463310.53 GB 0 0 1365099687

21:21

4-Апр-13

Аниме | HD Rips ·· Маги - волшебный лабиринт / Magi - Labyrinth of Magic [TV] [25 из 25] [Без хардсаба] [RUS(int), JAP+SUB] [2012 г., приключения, комедия, фэнтези, сёнэн, HDTVRip] [720p] damien1990 100725607409.38 GB 0 0 1365096791

20:33

4-Апр-13

Аниме | HD Rips ·· Маги: Волшебный Лабиринт / Magi - Labyrinth of Magic [TV] [2 из 25] [Без хардсаба] [RUS(ext), JAP, SUB] [2012 г., приключения, комедия, фэнтези, сёнэн, BDRip] [1080p] Galfimbul 22632170652.11 GB 0 0 1363899412

23:56

21-Мар-13

Аниме | HD Rips ·· Маги - волшебный лабиринт / Magi - Labyrinth of Magic [TV] [1-3 из 12] [Без хардсаба] [JAP, RUS(Int), SUB] [2012 г., приключения, комедия, фэнтези, сёнэн, HDTVRip] [720p] Polarnik 980562964935 MB 0 0 1351158600

12:50

25-Окт-12

Аниме | HD Rips ·· Маги - волшебный лабиринт / Magi - Labyrinth of Magic [TV] [1 из 12] [Без хардсаба] [JAP, RUS(ext), SUB] [2012 г., приключения, комедия, фэнтези, сёнэн, HDTVRip] [720p] Galfimbul 369268729352 MB 0 0 1349871720

15:22

10-Окт-12

Аниме | HD Rips ·· Маги - волшебный лабиринт (ТВ-1) / Magi: The Labyrinth of Magic (Масунари Кодзи) [TV] [25 из 25] [без хардсаба] [RUS(ext), JAP+SUB] [2012 г., комедия, фэнтези, сёнэн, BDRip] [1080p] Galfimbul 5687375455352.97 GB 0 0 1390159939

22:32

19-Янв-14

Еще никто не оставлял запись к записи скачать торрент Маги - волшебный лабиринт Magi . Будь первым!

!Обратная связь