Скачать через торрент Карас Karas бесплатно Аниме Все серии на русском torrent

Если у вас наблюдаются проблемы со скриншотами, переходом по ссылками, скачиванием торрентов - проблемы в блокировщике рекламы AdBlock. #хорошегоДня!


Статистика раздачи
Размер:  5.6 GB   |    Зарегистрирован:  4 года 8 месяцев   |    .torrent скачан:  39 раз   |   
Раздают:  1  
   
Загрузка...
 
Автор Сообщение

Galfimbul

avatar Galfimbul


Карас / Karas
Страна: Япония
Год выпуска: 2005-2007
Жанр: приключения, триллер, мистика
Тип: OVA
Продолжительность: 6 эп ~30 мин
Озвучка:
Профессиональная многоголосная MC Entertainment
Субтитры:
русские (внешние)
MC Entertainment
английские (встроенные)
BSEnc
Студия:
Режиссер: Сато Кэйити
Описание: Миры людей и демонов враждовали друг с другом с незапамятных времен... И кажется, столь же долго девушка Юри и ее слуга Карас старались поддерживать между ними спокойствие и порядок. Однако люди окончательно потеряли страх перед тьмой. Взбешенный людским упрямством, Карас изменил своим прежним соратникам, взял себе имя Эко и повел группу механизированных демонов войной против человеческой расы. Тем временем детектив Кьюр, глава отдела демонологических преступлений, начинает расследование ряда таинственных убийств, предположительно совершенных неким водным монстром; а демон Ню, прибывший в город сразиться с Эко, сталкивается с этим водным монстром и узнает, что на самом деле тот сменил облик и выдает себя за великого воина Караса...

World Art
Качество: BDRip
Релиз/Автор рипа: BSEnc
Совместимость с бытовыми плеерами: Нет
Наличие линковки: Нет
Тип видео: без хардсаба
Формат: MKV
Видео: x264, 1280x720, (16/9), ~3200кбит/с, 23.976fps, 10 bit
Аудио #1 (внешняя) русская - AC3, 6 ch, 384кбит/с, 48000Hz
Аудио #2 (в контейнере) японская - Vorbis, 6 ch, 720кбит/с, 48000Hz
01. Ouverture
02. Inferno
03. Revive
04. Sacrifice
05. Fantasy
06. True Legend


General
Unique ID : 254337538011533210869602997753537110446 (0xBF57A0C77AB9006FB46DD91D96A421AE)
Complete name : C:\Торренты №2\Karas [BD 720p]\[BSEnc] Karas 01 (BD 720p Vorbis).mkv
Format : Matroska
Format version : Version 2
File size : 1 019 MiB
Duration : 30mn 3s
Overall bit rate : 4 740 Kbps
Encoded date : UTC 2012-01-27 02:05:39
Writing application : mkvmerge v5.2.0 (''I can''t explain'') built on Dec 18 2011 18:12:03
Writing library : libebml v1.2.3 + libmatroska v1.3.0
Attachment : Yes / Yes / Yes

Video
ID : 1
Format : AVC
Format/Info : Advanced Video Codec
Format profile : High 10@L4.0
Format settings, CABAC : Yes
Format settings, ReFrames : 7 frames
Muxing mode : Header stripping
Codec ID : V_MPEG4/ISO/AVC
Duration : 30mn 3s
Bit rate : 3 925 Kbps
Width : 1 280 pixels
Height : 720 pixels
Display aspect ratio : 16:9
Frame rate : 23.976 fps
Color space : YUV
Chroma subsampling : 4:2:0
Bit depth : 10 bits
Scan type : Progressive
Bits/(Pixel*Frame) : 0.178
Stream size : 844 MiB (83%)
Title : H.264
Writing library : x264 core 120 r2146+650 183470d
Encoding settings : cabac=1 / ref=7 / deblock=1:1:1 / analyse=0x3:0x113 / me=umh / subme=9 / psy=1 / fade_compensate=0.60 / psy_rd=1.00:0.00 / mixed_ref=1 / me_range=32 / chroma_me=1 / trellis=1 / 8x8dct=1 / cqm=0 / deadzone=21,11 / fast_pskip=0 / chroma_qp_offset=-2 / threads=12 / sliced_threads=0 / nr=0 / decimate=1 / interlaced=0 / bluray_compat=0 / constrained_intra=0 / fgo=3 / bframes=10 / b_pyramid=2 / b_adapt=2 / b_bias=0 / direct=3 / weightb=1 / open_gop=0 / weightp=2 / keyint=250 / keyint_min=23 / scenecut=40 / intra_refresh=0 / rc_lookahead=80 / rc=crf / mbtree=1 / crf=17.0 / qcomp=0.70 / qpmin=0 / qpmax=81 / qpstep=4 / ip_ratio=1.40 / aq=1:1.00
Language : English
Matrix coefficients : BT.709-5, BT.1361, IEC 61966-2-4 709, SMPTE RP177

Audio
ID : 2
Format : Vorbis
Format settings, Floor : 1
Codec ID : A_VORBIS
Duration : 30mn 3s
Bit rate mode : Variable
Bit rate : 720 Kbps
Channel(s) : 6 channels
Sampling rate : 48.0 KHz
Compression mode : Lossy
Stream size : 155 MiB (15%)
Title : Japanese 5.1 Vorbis
Writing library : libVorbis (Schaufenugget) (20101101 (Schaufenugget))
Language : Japanese

Text
ID : 3
Format : ASS
Codec ID : S_TEXT/ASS
Codec ID/Info : Advanced Sub Station Alpha
Compression mode : Lossless
Title : English Subtitles
Language : English



Трекер:  [ 23-Мар-2013 13:20 ]

  

Скачать .torrent

Размер .torrent файла 16 KB


Размер: 5.6 GB
Хэш (hash) релиза: 55c7cb9d6a55000a8d20efe27862e92241485323
Подписка на обновления:

Торренты, похожие на Карас Karas скачать торрент

Форум Название Автор Размер S L Добавлен
Аниме | DVD ·· Карас / Karas (Сато Кэйити) [OVA] [5-6 из 6] [RUS, JAP, SUB] [2005, приключения, триллер, мистика] [1xDVD9] Galfimbul 84328693767.85 GB 0 0 1496966395

02:59

9-Июн-17

Аниме | HD Rips ·· Карас / Karas [OVA] [1-6] [Без хардсаба] [RUS(int), JAP, SUB] [2005 г., Приключения, триллер, мистика, BDRip] [1080p] L 1880185666217.51 GB 0 0 1326348714

09:11

12-Янв-12

Аниме | DVD ·· Карас / Karas [OAV] [1-6 из 6][Rus,JAP+SUB][2005][приключения, триллер, мистика][DVD9][Профессиональная] Galfimbul 2004890214418.67 GB 0 0 1317475456

16:24

1-Окт-11

Аниме | Blu-Ray и BDRemux ·· Карас / Karas (Сато Кэйити) [OVA][1-6 из 6][RUS(ext),JAP+SUB][без хардсаба] [2005 г., приключения, триллер, мистика, BDRemux] [1080p] Galfimbul 3746245474734.89 GB 0 0 1302377509

22:31

9-Апр-11

Аниме | Rips ·· Карас / Ворон / Crow / Karas [OVA] [1-6 из 6] [RUS(ext), JAP+SUB] [2005 г., приключения, фэнтези, BDRip][любительская, профессиональня] L 41960813943.91 GB 0 0 1312778277

07:37

8-Авг-11

Аниме | HD Rips ·· Карас / Ворон / Karas [OVA] [1-6 из 6] [RUS(int),JAP+SUB] [2005 г., Приключения, триллер, мистика, BDRip] [720p] [Профессиональная] Bot 59714860705.56 GB 0 0 1286481138

22:52

7-Окт-10

Еще никто не оставлял запись к записи скачать торрент Карас Karas . Будь первым!

!Обратная связь