Скачать порно через торрент Алешкины подружки UnionPeer.org бесплатно онлайн HD качество

Скачать новое порно 2015, 2014 новинки через торрент UnionPeer.org

Порно торрент бесплатно ЮнионПир.орг

Если у вас наблюдаются проблемы со скриншотами, переходом по ссылками, скачиванием торрентов - проблемы в блокировщике рекламы AdBlock. #хорошегоДня!


Статистика раздачи
Размер:  1.88 GB   |    Зарегистрирован:  4 года 4 месяца   |    .torrent скачан:  647 раз   |   
Раздают:  1  
   
Загрузка...
 
Автор Сообщение

damien1990


Алешкины подружки

Год производства: 2000 г.
Жанр: All Porn, Amateur, Barely legal, Blowjob, Breasts (Tits), Brunettes, Close ups, Cunnilingus, Cum shots, Dildo, threesome, Ethnic, Girl/girl, Lesbians, Lolita, Muff Diving, Masturbation, Oral Sex, Russian Girls, Sex Toys, Shaved, Straight, Strapon, Teens, Topless, Water Sports(Peeing, Golden Shower, Golden Rain)
Продолжительность: 03:04:00

Описание: Любительское видео, цветное, качество картинки отличное, качество звука отличное. оригинальное название Алешкины подружки. В начале две молодые потрясающе красивые девушки развлекаются с друг другом, в ход идет всё губы, руки, фалоимитатор, но этого им видимо мало и одна из них одевает на себя фалоимитатор и начинает трахать им свою подружку. Потом одна из тех девушек, с длинными темными волосами с красивым металлическим поясом и с галстуке уже с мужчиной, они занимаются сексом. Затем молодая девушка на кровати ласкает саму себя, потом она берёт ярко красный фалоимитатор, и продолжает удовлетворять себя, далее к ней присоединяется мужчина, и они продолжают.Далее еще одна пара занимается сексом, затем молодая темноволосая девушка мастурбирует перед камерой, далее ей начинает помогать парень, замет она берет у него в рот, а потом он ее начинает трахать.

Качество видео: DVDRip
Видео: MPEG4 Video 720x576
Аудио: AAC 48000Hz stereo
Формат : MPEG-4
Профиль формата : Base Media
Идентификатор кодека : isom
Размер файла : 1,05 Гбайт
Продолжительность : 1 ч. 38 м.
Режим общего битрейта : Переменный
Общий поток : 1529 Кбит/сек
Дата кодирования : UTC 2012-03-16 12:35:37
Дата пометки : UTC 2012-03-16 12:35:37
Программа кодирования : Lavf52.50.0

Видео
Идентификатор : 1
Формат : MPEG-4 Visual
Профиль формата : Simple@L3
Параметр BVOP формата : Нет
Параметр QPel формата : Нет
Параметр GMC формата : Без точки перехода
Параметр матрицы формата : Default (H.263)
Идентификатор кодека : 20
Продолжительность : 1 ч. 38 м.
Битрейт : 1460 Кбит/сек
Ширина : 720 пикселей
Высота : 576 пикселей
Соотношение сторон : 4:3
Режим частоты кадров : Постоянный
Частота кадров : 25,000 кадров/сек
Стандарт вещания : PAL
Цветовое пространство : YUV
Субдискретизация насыщенности : 4:2:0
Битовая глубина : 8 бит
Тип развёртки : Прогрессивная
Метод сжатия : С потерями
Бит/(Пиксели*Кадры) : 0.141
Размер потока : 1,00 Гбайт (96%)
Библиотека кодирования : XviD 1.2.1 (UTC 2008-12-04)
Дата кодирования : UTC 2012-03-16 12:35:37
Дата пометки : UTC 2012-03-16 12:35:37

Аудио
Идентификатор : 2
Формат : AAC
Формат/Информация : Advanced Audio Codec
Профиль формата : LC
Идентификатор кодека : 40
Продолжительность : 1 ч. 38 м.
Вид битрейта : Переменный
Битрейт : 64,0 Кбит/сек
Каналы : 2 канала
Расположение каналов : Front: L R
Частота : 48,0 КГц
Метод сжатия : С потерями
Размер потока : 45,0 Мбайт (4%)
Дата кодирования : UTC 2012-03-16 12:35:37
Дата пометки : UTC 2012-03-16 12:35:37
Формат : MPEG-4
Профиль формата : Base Media
Идентификатор кодека : isom
Размер файла : 312 Мбайт
Продолжительность : 36 м.
Режим общего битрейта : Переменный
Общий поток : 1211 Кбит/сек
Дата кодирования : UTC 2012-03-16 14:36:48
Дата пометки : UTC 2012-03-16 14:36:48
Программа кодирования : Lavf52.50.0

Видео
Идентификатор : 1
Формат : MPEG-4 Visual
Профиль формата : Simple@L3
Параметр BVOP формата : Нет
Параметр QPel формата : Нет
Параметр GMC формата : Без точки перехода
Параметр матрицы формата : Default (H.263)
Идентификатор кодека : 20
Продолжительность : 36 м.
Битрейт : 1142 Кбит/сек
Ширина : 720 пикселей
Высота : 576 пикселей
Соотношение сторон : 4:3
Режим частоты кадров : Постоянный
Частота кадров : 25,000 кадров/сек
Стандарт вещания : PAL
Цветовое пространство : YUV
Субдискретизация насыщенности : 4:2:0
Битовая глубина : 8 бит
Тип развёртки : Прогрессивная
Метод сжатия : С потерями
Бит/(Пиксели*Кадры) : 0.110
Размер потока : 294 Мбайт (94%)
Библиотека кодирования : XviD 1.2.1 (UTC 2008-12-04)
Дата кодирования : UTC 2012-03-16 14:36:48
Дата пометки : UTC 2012-03-16 14:36:48

Аудио
Идентификатор : 2
Формат : AAC
Формат/Информация : Advanced Audio Codec
Профиль формата : LC
Идентификатор кодека : 40
Продолжительность : 36 м.
Вид битрейта : Переменный
Битрейт : 64,2 Кбит/сек
Каналы : 2 канала
Расположение каналов : Front: L R
Частота : 48,0 КГц
Метод сжатия : С потерями
Размер потока : 16,5 Мбайт (5%)
Дата кодирования : UTC 2012-03-16 14:36:48
Дата пометки : UTC 2012-03-16 14:36:48
Формат : MPEG-4
Профиль формата : Base Media
Идентификатор кодека : isom
Размер файла : 331 Мбайт
Продолжительность : 29 м.
Режим общего битрейта : Переменный
Общий поток : 1564 Кбит/сек
Дата кодирования : UTC 2012-03-16 15:19:02
Дата пометки : UTC 2012-03-16 15:19:02
Программа кодирования : Lavf52.50.0

Видео
Идентификатор : 1
Формат : MPEG-4 Visual
Профиль формата : Simple@L3
Параметр BVOP формата : Нет
Параметр QPel формата : Нет
Параметр GMC формата : Без точки перехода
Параметр матрицы формата : Default (H.263)
Идентификатор кодека : 20
Продолжительность : 29 м.
Битрейт : 1496 Кбит/сек
Ширина : 720 пикселей
Высота : 576 пикселей
Соотношение сторон : 4:3
Режим частоты кадров : Постоянный
Частота кадров : 25,000 кадров/сек
Стандарт вещания : PAL
Цветовое пространство : YUV
Субдискретизация насыщенности : 4:2:0
Битовая глубина : 8 бит
Тип развёртки : Прогрессивная
Метод сжатия : С потерями
Бит/(Пиксели*Кадры) : 0.144
Размер потока : 317 Мбайт (96%)
Библиотека кодирования : XviD 1.2.1 (UTC 2008-12-04)
Дата кодирования : UTC 2012-03-16 15:19:02
Дата пометки : UTC 2012-03-16 15:19:02

Аудио
Идентификатор : 2
Формат : AAC
Формат/Информация : Advanced Audio Codec
Профиль формата : LC
Идентификатор кодека : 40
Продолжительность : 29 м.
Вид битрейта : Переменный
Битрейт : 63,6 Кбит/сек
Каналы : 2 канала
Расположение каналов : Front: L R
Частота : 48,0 КГц
Метод сжатия : С потерями
Размер потока : 13,5 Мбайт (4%)
Дата кодирования : UTC 2012-03-16 15:19:02
Дата пометки : UTC 2012-03-16 15:19:02
Формат : MPEG-4
Профиль формата : Base Media
Идентификатор кодека : isom
Размер файла : 205 Мбайт
Продолжительность : 14 м.
Режим общего битрейта : Переменный
Общий поток : 2014 Кбит/сек
Дата кодирования : UTC 2012-03-16 15:56:11
Дата пометки : UTC 2012-03-16 15:56:11
Программа кодирования : Lavf52.50.0

Видео
Идентификатор : 1
Формат : MPEG-4 Visual
Профиль формата : Simple@L3
Параметр BVOP формата : Нет
Параметр QPel формата : Нет
Параметр GMC формата : Без точки перехода
Параметр матрицы формата : Default (H.263)
Идентификатор кодека : 20
Продолжительность : 14 м.
Битрейт : 1945 Кбит/сек
Ширина : 720 пикселей
Высота : 576 пикселей
Соотношение сторон : 4:3
Режим частоты кадров : Постоянный
Частота кадров : 25,000 кадров/сек
Стандарт вещания : PAL
Цветовое пространство : YUV
Субдискретизация насыщенности : 4:2:0
Битовая глубина : 8 бит
Тип развёртки : Прогрессивная
Метод сжатия : С потерями
Бит/(Пиксели*Кадры) : 0.188
Размер потока : 198 Мбайт (97%)
Библиотека кодирования : XviD 1.2.1 (UTC 2008-12-04)
Дата кодирования : UTC 2012-03-16 15:56:11
Дата пометки : UTC 2012-03-16 15:56:11

Аудио
Идентификатор : 2
Формат : AAC
Формат/Информация : Advanced Audio Codec
Профиль формата : LC
Идентификатор кодека : 40
Продолжительность : 14 м.
Вид битрейта : Переменный
Битрейт : 64,2 Кбит/сек
Каналы : 2 канала
Расположение каналов : Front: L R
Частота : 48,0 КГц
Метод сжатия : С потерями
Размер потока : 6,53 Мбайт (3%)
Дата кодирования : UTC 2012-03-16 15:56:11
Дата пометки : UTC 2012-03-16 15:56:11


Трекер:  [ 23-Мар-2013 01:46 ]

  

Скачать .torrent

Размер .torrent файла 19 KB


Размер: 1.88 GB
Хэш (hash) релиза: 415edbcad88a9f59397584aca82eeb87806ba0de

Еще никто не оставлял запись к записи скачать торрент Алешкины подружки . Будь первым!

!Обратная связь