Скачать через торрент музыку В поисках Сахарного Человека Searching for Sugar Man бесплатно без регистрации torrent

Если у вас наблюдаются проблемы со скриншотами, переходом по ссылками, скачиванием торрентов - проблемы в блокировщике рекламы AdBlock. #хорошегоДня!


Статистика раздачи
Размер:  325 MB   |    Зарегистрирован:  4 года 3 месяца   |    .torrent скачан:  25 раз   |   
Раздают:  1  
   
Загрузка...
 
Автор Сообщение

Galfimbul

avatar Galfimbul


В поисках Сахарного Человека / Searching for Sugar Man


Жанр: Score || Композитор: Rodriguez || Год выпуска диска: 2012 || Страна-производитель диска: США || Аудио кодек: FLAC (*.flac) || Тип рипа: tracks+.cue || Битрейт аудио: lossless || Продолжительность: 00:51:05 || Источник: waffles.fm || Наличие сканов в содержимом раздачи: нет
Треклист:
01. Sugar Man [03:47]
02. Crucify Your Mind [02:30]
03. Cause [05:28]
04. I Wonder [02:34]
05. Like Janis [02:35]
06. This In Not a Song, It''s an Outburst: Or, The Establishment Blues [02:06]
07. Can''t Get Away [03:53]
08. I Think of You [03:23]
09. Inner City Blues [03:25]
10. Sandrevan Lullaby - Lifestyles [06:36]
11. Street Boy [03:46]
12. A Most Disgusting Song [04:46]
13. I''ll Slip Away [02:50]
14. Jane S. Piddy [03:00]
Exact Audio Copy V1.0 beta 3 from 29. August 2011

EAC extraction logfile from 7. August 2012, 21:05

Rodriguez / Searching For Sugar Man - Original Motion Picture Soundtrack

Used drive : MATSHITADVD-R UJ-898 Adapter: 1 ID: 0

Read mode : SecureUtilize accurate stream : YesDefeat audio cache : YesMake use of C2 pointers : No

Read offset correction : 102Overread into Lead-In and Lead-Out : NoFill up missing offset samples with silence : YesDelete leading and trailing silent blocks : NoNull samples used in CRC calculations : YesUsed interface : Native Win32 interface for Win NT & 2000Gap handling : Appended to previous track

Used output format : User Defined EncoderSelected bitrate : 128 kBit/sQuality : HighAdd ID3 tag : NoCommand line compressor : C:\Program Files (x86)\Exact Audio Copy\Flac\flac.exeAdditional command line options : -8 -V -T "ARTIST=%artist%" -T "TITLE=%title%" -T "ALBUM=%albumtitle%" -T "DATE=%year%" -T "TRACKNUMBER=%tracknr%" -T "GENRE=%genre%" -T "PERFORMER=%albuminterpret%" -T "COMPOSER=%composer%" %haslyrics%--tag-from-file=LYRICS="%lyricsfile%"%haslyrics% -T "ALBUMARTIST=%albumartist%" -T "ALBUM ARTIST=%albumartist%" -T "DISCNUMBER=%cdnumber%" -T "TOTALDISCS=%totalcds%" -T "TOTALTRACKS=%numtracks%" -T "COMMENT=EAC V1.0 beta 3, Secure Mode, Test & Copy, AccurateRip, FLAC -8" %source% -o %dest%

TOC of the extracted CD

Track | Start | Length | Start sector | End sector --------------------------------------------------------- 1 | 0:00.00 | 3:49.66 | 0 | 17240 2 | 3:49.66 | 2:31.65 | 17241 | 28630 3 | 6:21.56 | 5:29.36 | 28631 | 53341 4 | 11:51.17 | 2:34.39 | 53342 | 64930 5 | 14:25.56 | 2:36.67 | 64931 | 76697 6 | 17:02.48 | 2:07.30 | 76698 | 86252 7 | 19:10.03 | 3:56.11 | 86253 | 103963 8 | 23:06.14 | 3:25.64 | 103964 | 119402 9 | 26:32.03 | 3:27.41 | 119403 | 134968 10 | 29:59.44 | 6:38.66 | 134969 | 164884 11 | 36:38.35 | 3:47.00 | 164885 | 181909 12 | 40:25.35 | 4:47.69 | 181910 | 203503 13 | 45:13.29 | 2:51.61 | 203504 | 216389 14 | 48:05.15 | 3:00.29 | 216390 | 229918

Track 1

Filename C:\EAC_Rips\Rodriguez - 2012 - Searching For Sugar Man - Original Motion Picture Soundtrack\01 - Sugar Man.wav

Pre-gap length 0:00:02.00

Peak level 96.9 % Extraction speed 2.9 X Track quality 100.0 % Test CRC 356C7F60 Copy CRC 356C7F60 Track not present in AccurateRip database Copy OK

Track 2

Filename C:\EAC_Rips\Rodriguez - 2012 - Searching For Sugar Man - Original Motion Picture Soundtrack\02 - Crucify Your Mind.wav

Pre-gap length 0:00:01.98

Peak level 96.9 % Extraction speed 2.9 X Track quality 100.0 % Test CRC D5C2586A Copy CRC D5C2586A Track not present in AccurateRip database Copy OK

Track 3

Filename C:\EAC_Rips\Rodriguez - 2012 - Searching For Sugar Man - Original Motion Picture Soundtrack\03 - Cause.wav

Pre-gap length 0:00:01.52

Peak level 96.9 % Extraction speed 3.5 X Track quality 100.0 % Test CRC 632473AE Copy CRC 632473AE Track not present in AccurateRip database Copy OK

Track 4

Filename C:\EAC_Rips\Rodriguez - 2012 - Searching For Sugar Man - Original Motion Picture Soundtrack\04 - I Wonder.wav

Pre-gap length 0:00:01.10

Peak level 96.9 % Extraction speed 3.3 X Track quality 100.0 % Test CRC 7B714FBA Copy CRC 7B714FBA Track not present in AccurateRip database Copy OK

Track 5

Filename C:\EAC_Rips\Rodriguez - 2012 - Searching For Sugar Man - Original Motion Picture Soundtrack\05 - Like Janis.wav

Pre-gap length 0:00:00.46

Peak level 97.0 % Extraction speed 3.4 X Track quality 100.0 % Test CRC 1F98F80B Copy CRC 1F98F80B Track not present in AccurateRip database Copy OK

Track 6

Filename C:\EAC_Rips\Rodriguez - 2012 - Searching For Sugar Man - Original Motion Picture Soundtrack\06 - This Is Not A Song, It''s an Outburst- Or, The Establishment Blues.wav

Pre-gap length 0:00:01.81

Peak level 96.9 % Extraction speed 3.4 X Track quality 100.0 % Test CRC 74843B07 Copy CRC 74843B07 Track not present in AccurateRip database Copy OK

Track 7

Filename C:\EAC_Rips\Rodriguez - 2012 - Searching For Sugar Man - Original Motion Picture Soundtrack\07 - Can''t Get Away.wav

Pre-gap length 0:00:00.93

Peak level 97.6 % Extraction speed 4.0 X Track quality 100.0 % Test CRC 0C3D4853 Copy CRC 0C3D4853 Track not present in AccurateRip database Copy OK

Track 8

Filename C:\EAC_Rips\Rodriguez - 2012 - Searching For Sugar Man - Original Motion Picture Soundtrack\08 - I Think of You.wav

Pre-gap length 0:00:02.97

Peak level 96.9 % Extraction speed 3.3 X Track quality 99.9 % Test CRC 04F08A4B Copy CRC 04F08A4B Track not present in AccurateRip database Copy OK

Track 9

Filename C:\EAC_Rips\Rodriguez - 2012 - Searching For Sugar Man - Original Motion Picture Soundtrack\09 - Inner City Blues.wav

Pre-gap length 0:00:01.93

Peak level 96.9 % Extraction speed 4.3 X Track quality 100.0 % Test CRC FB5A1546 Copy CRC FB5A1546 Track not present in AccurateRip database Copy OK

Track 10

Filename C:\EAC_Rips\Rodriguez - 2012 - Searching For Sugar Man - Original Motion Picture Soundtrack\10 - Lifestyles - Sandrevan Lullaby.wav

Pre-gap length 0:00:01.98

Peak level 96.9 % Extraction speed 4.8 X Track quality 100.0 % Test CRC 3E2F9765 Copy CRC 3E2F9765 Track not present in AccurateRip database Copy OK

Track 11

Filename C:\EAC_Rips\Rodriguez - 2012 - Searching For Sugar Man - Original Motion Picture Soundtrack\11 - Street Boy.wav

Pre-gap length 0:00:01.98

Peak level 96.9 % Extraction speed 4.7 X Track quality 100.0 % Test CRC 3629B4AF Copy CRC 3629B4AF Track not present in AccurateRip database Copy OK

Track 12

Filename C:\EAC_Rips\Rodriguez - 2012 - Searching For Sugar Man - Original Motion Picture Soundtrack\12 - A Most Disgusting Song.wav

Pre-gap length 0:00:00.08

Peak level 96.9 % Extraction speed 5.0 X Track quality 100.0 % Test CRC 1C541351 Copy CRC 1C541351 Track not present in AccurateRip database Copy OK

Track 13

Filename C:\EAC_Rips\Rodriguez - 2012 - Searching For Sugar Man - Original Motion Picture Soundtrack\13 - I''ll Slip Away.wav

Pre-gap length 0:00:01.68

Peak level 97.6 % Extraction speed 4.8 X Track quality 100.0 % Test CRC 5AADE85F Copy CRC 5AADE85F Track not present in AccurateRip database Copy OK

Track 14

Filename C:\EAC_Rips\Rodriguez - 2012 - Searching For Sugar Man - Original Motion Picture Soundtrack\14 - Jane S. Piddy.wav

Pre-gap length 0:00:01.57

Peak level 96.9 % Extraction speed 5.0 X Track quality 100.0 % Test CRC 04585D63 Copy CRC 04585D63 Track not present in AccurateRip database Copy OK

None of the tracks are present in the AccurateRip database

No errors occurred

End of status report

---- CUETools DB Plugin V2.1.3

[CTDB TOCID: djdTnv83YzVUccIHv0X.hlVfI8g-] disk not present in database, Submit result: djdTnv83YzVUccIHv0X.hlVfI8g- has been uploaded

==== Log checksum 754218B24F39CC6F86B58170AD68326DF1DF063C6A22B23F83B4A3DFA8D21A4D ====
REM DATE 2012REM DISCID B20BF90EREM COMMENT "ExactAudioCopy v1.0b3"PERFORMER "Rodriguez"TITLE "Searching For Sugar Man - Original Motion Picture Soundtrack"FILE "01 - Sugar Man.wav" WAVE TRACK 01 AUDIO TITLE "Sugar Man" PERFORMER "Rodriguez" ISRC USDEA0803601 INDEX 01 00:00:00 TRACK 02 AUDIO TITLE "Crucify Your Mind" PERFORMER "Rodriguez" ISRC USDEA0803603 INDEX 00 03:47:67FILE "02 - Crucify Your Mind.wav" WAVE INDEX 01 00:00:00 TRACK 03 AUDIO TITLE "Cause" PERFORMER "Rodriguez" ISRC USDEA0803810 INDEX 00 02:30:26FILE "03 - Cause.wav" WAVE INDEX 01 00:00:00 TRACK 04 AUDIO TITLE "I Wonder" PERFORMER "Rodriguez" ISRC USDEA0803608 INDEX 00 05:28:28FILE "04 - I Wonder.wav" WAVE INDEX 01 00:00:00 TRACK 05 AUDIO TITLE "Like Janis" PERFORMER "Rodriguez" ISRC USDEA0803609 INDEX 00 02:34:04FILE "05 - Like Janis.wav" WAVE INDEX 01 00:00:00 TRACK 06 AUDIO TITLE "This Is Not A Song, It''s an Outburst: Or, The Establishment Blues" PERFORMER "Rodriguez" ISRC USDEA0803604 INDEX 00 02:35:06FILE "06 - This Is Not A Song, It''s an Outburst- Or, The Establishment Blues.wav" WAVE INDEX 01 00:00:00 TRACK 07 AUDIO TITLE "Can''t Get Away" PERFORMER "Rodriguez" ISRC USDEA0803811 INDEX 00 02:06:35FILE "07 - Can''t Get Away.wav" WAVE INDEX 01 00:00:00 TRACK 08 AUDIO TITLE "I Think of You" PERFORMER "Rodriguez" ISRC USDEA0803803 INDEX 00 03:53:13FILE "08 - I Think of You.wav" WAVE INDEX 01 00:00:00 TRACK 09 AUDIO TITLE "Inner City Blues" PERFORMER "Rodriguez" ISRC USDEA0803607 INDEX 00 03:23:69FILE "09 - Inner City Blues.wav" WAVE INDEX 01 00:00:00 TRACK 10 AUDIO TITLE "Lifestyles - Sandrevan Lullaby" PERFORMER "Rodriguez" ISRC USDEA0803806 INDEX 00 03:25:42FILE "10 - Lifestyles - Sandrevan Lullaby.wav" WAVE INDEX 01 00:00:00 TRACK 11 AUDIO TITLE "Street Boy" PERFORMER "Rodriguez" ISRC USDEA0803812 INDEX 00 06:36:67FILE "11 - Street Boy.wav" WAVE INDEX 01 00:00:00 TRACK 12 AUDIO TITLE "A Most Disgusting Song" PERFORMER "Rodriguez" ISRC USDEA0803802 INDEX 00 03:46:69FILE "12 - A Most Disgusting Song.wav" WAVE INDEX 01 00:00:00 TRACK 13 AUDIO TITLE "I''ll Slip Away" PERFORMER "Rodriguez" ISRC USDEA0803813 INDEX 00 04:46:18FILE "13 - I''ll Slip Away.wav" WAVE INDEX 01 00:00:00 TRACK 14 AUDIO TITLE "Jane S. Piddy" PERFORMER "Rodriguez" ISRC USDEA0803612 INDEX 00 02:50:18FILE "14 - Jane S. Piddy.wav" WAVE INDEX 01 00:00:00




Трекер:  [ 12-Июн-2013 16:31 ]

  

Скачать .torrent

Размер .torrent файла 14 KB


Размер: 325 MB
Хэш (hash) релиза: 1e6ec7f3e98fde9d60f0fe677c2154ac3f5a3e95

bot

Топик был перенесен в форум Саундтреки к фильмам и мультфильмам (lossless)

Перенес Galfimbul

Хотите добавить комментарий к записи скачать торрент В поисках Сахарного Человека Searching for Sugar Man

!Обратная связь