Скачать порно через торрент Соси не отвлекайся! UnionPeer.org бесплатно онлайн HD качество

Скачать новое порно 2015, 2014 новинки через торрент UnionPeer.org

Порно торрент бесплатно ЮнионПир.орг

Если у вас наблюдаются проблемы со скриншотами, переходом по ссылками, скачиванием торрентов - проблемы в блокировщике рекламы AdBlock. #хорошегоДня!


Статистика раздачи
Размер:  66 MB   |    Зарегистрирован:  4 года 8 месяцев   |    .torrent скачан:  491 раз   |   
Раздают:  1  
   
Загрузка...
 
Автор Сообщение

Galfimbul

avatar Galfimbul


Соси не отвлекайся!

Год производства: 2013 г.
Жанр: Homemade,Russian,Blowjob,Cumshot.

Описание: 3 минета с окончанием. Подружка отсасывает своему дружку, а парнишка любитель кончать в рот. Что он удачно и проделывает.

Доп. информация: Чуток забавных диалогов присутствует.

Качество видео: CamRip
Формат видео: MP4
Количество видео: 3
Общая продолжительность: 00:13:02
Тех. данные, продолжительность, название каждого ролика:
Ролик 1
Format : MPEG-4
Format profile : Base Media
Codec ID : isom
File size : 25.4 MiB
Duration : 3mn 43s
Overall bit rate mode : Variable
Overall bit rate : 953 Kbps
Writing application : Lavf52.61.0

Video
ID : 1
Format : MPEG-4 Visual
Format profile : Simple@L3
Format settings, BVOP : No
Format settings, QPel : No
Format settings, GMC : No warppoints
Format settings, Matrix : Default (H.263)
Codec ID : 20
Duration : 3mn 43s
Bit rate : 899 Kbps
Width : 320 pixels
Height : 240 pixels
Display aspect ratio : 4:3
Frame rate mode : Variable
Frame rate : 19.265 fps
Original frame rate : 29.970 fps
Minimum frame rate : 5.994 fps
Maximum frame rate : 29.970 fps
Color space : YUV
Chroma subsampling : 4:2:0
Bit depth : 8 bits
Scan type : Progressive
Compression mode : Lossy
Bits/(Pixel*Frame) : 0.608
Stream size : 24.0 MiB (94%)
Writing library : XviD 1.2.1 (UTC 2008-12-04)

Audio
ID : 2
Format : AAC
Format/Info : Advanced Audio Codec
Format profile : LC
Codec ID : 40
Duration : 3mn 43s
Bit rate mode : Variable
Bit rate : 50.1 Kbps
Channel(s) : 2 channels
Channel positions : Front: L R
Sampling rate : 24.0 KHz
Compression mode : Lossy
Stream size : 1.34 MiB (5%)

Ролик 2
Format : MPEG-4
Format profile : Base Media
Codec ID : isom
File size : 24.6 MiB
Duration : 6mn 31s
Overall bit rate mode : Variable
Overall bit rate : 526 Kbps
Writing application : Lavf52.61.0

Video
ID : 1
Format : MPEG-4 Visual
Format profile : Simple@L3
Format settings, BVOP : No
Format settings, QPel : No
Format settings, GMC : No warppoints
Format settings, Matrix : Default (H.263)
Codec ID : 20
Duration : 6mn 31s
Bit rate : 472 Kbps
Width : 320 pixels
Height : 240 pixels
Display aspect ratio : 4:3
Frame rate mode : Variable
Frame rate : 11.638 fps
Original frame rate : 29.970 fps
Minimum frame rate : 7.492 fps
Maximum frame rate : 29.970 fps
Color space : YUV
Chroma subsampling : 4:2:0
Bit depth : 8 bits
Scan type : Progressive
Compression mode : Lossy
Bits/(Pixel*Frame) : 0.528
Stream size : 22.0 MiB (90%)
Writing library : XviD 1.2.1 (UTC 2008-12-04)

Audio
ID : 2
Format : AAC
Format/Info : Advanced Audio Codec
Format profile : LC
Codec ID : 40
Duration : 6mn 31s
Bit rate mode : Variable
Bit rate : 51.2 Kbps
Channel(s) : 2 channels
Channel positions : Front: L R
Sampling rate : 24.0 KHz
Compression mode : Lossy
Stream size : 2.39 MiB (10%)

Ролик 3
Format : MPEG-4
Format profile : Base Media
Codec ID : isom
File size : 15.6 MiB
Duration : 3mn 26s
Overall bit rate mode : Variable
Overall bit rate : 636 Kbps
Writing application : Lavf52.61.0

Video
ID : 1
Format : MPEG-4 Visual
Format profile : Simple@L3
Format settings, BVOP : No
Format settings, QPel : No
Format settings, GMC : No warppoints
Format settings, Matrix : Default (H.263)
Codec ID : 20
Duration : 3mn 26s
Bit rate : 585 Kbps
Width : 320 pixels
Height : 240 pixels
Display aspect ratio : 4:3
Frame rate mode : Variable
Frame rate : 11.634 fps
Original frame rate : 29.970 fps
Minimum frame rate : 5.994 fps
Maximum frame rate : 29.970 fps
Color space : YUV
Chroma subsampling : 4:2:0
Bit depth : 8 bits
Scan type : Progressive
Compression mode : Lossy
Bits/(Pixel*Frame) : 0.655
Stream size : 14.4 MiB (92%)
Writing library : XviD 1.2.1 (UTC 2008-12-04)

Audio
ID : 2
Format : AAC
Format/Info : Advanced Audio Codec
Format profile : LC
Codec ID : 40
Duration : 3mn 26s
Bit rate mode : Variable
Bit rate : 48.0 Kbps
Channel(s) : 2 channels
Channel positions : Front: L R
Sampling rate : 24.0 KHz
Compression mode : Lossy
Stream size : 1.20 MiB (8%)


Трекер:  [ 12-Мар-2013 15:16 ]

  

Скачать .torrent

Размер .torrent файла 10 KB


Размер: 66 MB
Хэш (hash) релиза: 2504df0960ddf9d2e77f710de7e28a018167f711

Торренты, похожие на Соси не отвлекайся! скачать торрент

Форум Название Автор Размер S L Добавлен
Сайтрипы 2012 ·· Соси, не отвлекайся [2012 г., Home, amateur, oral, CamRip] Galfimbul 175365518167 MB 0 0 1350828180

17:03

21-Окт-12

bot

Топик был перенесен в форум Видеоролики

Перенес Galfimbul

Хотите добавить комментарий к записи скачать торрент Соси не отвлекайся!

!Обратная связь