Скачать порно через торрент Kanojo x Kanojo x Kanojo: San Shimai to no DokiDoki Kyoudou Seikatsu Три подружки: Бурная жизнь с тремя сестричками UnionPeer.org бесплатно онлайн HD качество

Скачать новое порно 2015, 2014 новинки через торрент UnionPeer.org

Порно торрент бесплатно ЮнионПир.орг

Если у вас наблюдаются проблемы со скриншотами, переходом по ссылками, скачиванием торрентов - проблемы в блокировщике рекламы AdBlock. #хорошегоДня!


Статистика раздачи
Размер:  7.52 GB   |    Зарегистрирован:  4 года 7 месяцев   |    .torrent скачан:  201 раз   |   
Раздают:  1  
   
Загрузка...
 
Автор Сообщение

Galfimbul

avatar Galfimbul


彼女×彼女×彼女~三姉妹とのドキドキ共同生活~
Kanojo x Kanojo x Kanojo: San Shimai to no DokiDoki Kyoudou Seikatsu
Три подружки: Бурная жизнь с тремя сестричками


Год выпуска: 2009
Страна: Япония
Жанр: big tits, blowjob, bukkake, harem, oral sex, virgin
Продолжительность: >3 эп. по 30 мин.
Субтитры: Отсутствуют
Цензура: Присутствует
Режиссёр: Murayama Kousuke
Студия: Studio Eromatick
Описание:
Due to unavoidable circumstances, Haruomi is freeloading at his relatives', the Orifushi sisters', house. Since that day, his common everyday life has come to a screeching halt.

The eldest sister is the gentle and maternal Natsumi. The second is Akina, a bright and cheerful girl for whom a smile is well-suited. The youngest sister is the bratty Mafuyu.

The curtain rises on Haruomi's new life in the company of these three beautiful sisters.
Информационные ссылки: AniDB || MAL || World Art || ХентайМаг
Исходник: DVD-5
Видео: MPEG2 | NTSC | 16x9 | 720x480 | 8000 Kbps
Аудио JAP: AC-3 | 48000Hz | 384 Kbps | 2ch
01. Meetings Are Gentle and Firm, Imp Paradise
02. Meeting in a Toilet, in an Infirmary and a Maid Paradise
03. Meeting at a Festival, in a Bath and a Harem Paradise
General
Complete name : H:\VIDEO_TS\VTS_01_1.VOB
Format : MPEG-PS
File size : 1 024 MiB
Duration : 16mn 46s
Overall bit rate : 8 532 Kbps

Video
ID : 224 (0xE0)
Format : MPEG Video
Format version : Version 2
Format profile : Main@Main
Format settings, BVOP : Yes
Format settings, Matrix : Custom
Duration : 16mn 46s
Bit rate : 8 000 Kbps
Width : 720 pixels
Height : 480 pixels
Display aspect ratio : 16:9
Frame rate : 29.970 fps
Standard : NTSC
Color space : YUV
Chroma subsampling : 4:2:0
Bit depth : 8 bits
Scan type : Interlaced
Scan order : Top Field First
Compression mode : Lossy
Bits/(Pixel*Frame) : 0.772
Stream size : 957 MiB (94%)

Audio
ID : 189 (0xBD)-128 (0x80)
Format : AC-3
Format/Info : Audio Coding 3
Mode extension : CM (complete main)
Muxing mode : DVD-Video
Duration : 16mn 46s
Bit rate mode : Constant
Bit rate : 384 Kbps
Channel(s) : 2 channels
Channel positions : Front: L R
Sampling rate : 48.0 KHz
Bit depth : 16 bits
Compression mode : Lossy
Stream size : 46.1 MiB (4%)


Исходник: DVD-5
Видео: MPEG2 | NTSC | 16x9 | 720x480 | 7800 Kbps
Аудио JAP: AC-3 | 48000Hz | 384 Kbps | 2ch
General
Complete name : H:\VIDEO_TS\VTS_01_1.VOB
Format : MPEG-PS
File size : 1 024 MiB
Duration : 17mn 12s
Overall bit rate : 8 321 Kbps

Video
ID : 224 (0xE0)
Format : MPEG Video
Format version : Version 2
Format profile : Main@Main
Format settings, BVOP : Yes
Format settings, Matrix : Custom
Duration : 17mn 12s
Bit rate : 7 800 Kbps
Width : 720 pixels
Height : 480 pixels
Display aspect ratio : 16:9
Frame rate : 29.970 fps
Standard : NTSC
Color space : YUV
Chroma subsampling : 4:2:0
Bit depth : 8 bits
Scan type : Interlaced
Scan order : Top Field First
Compression mode : Lossy
Bits/(Pixel*Frame) : 0.753
Stream size : 956 MiB (93%)

Audio
ID : 189 (0xBD)-128 (0x80)
Format : AC-3
Format/Info : Audio Coding 3
Mode extension : CM (complete main)
Muxing mode : DVD-Video
Duration : 17mn 12s
Bit rate mode : Constant
Bit rate : 384 Kbps
Channel(s) : 2 channels
Channel positions : Front: L R
Sampling rate : 48.0 KHz
Bit depth : 16 bits
Compression mode : Lossy
Stream size : 47.2 MiB (5%)


Исходник: DVD-5
Видео: MPEG2 | NTSC | 16x9 | 720x480 | 7800 Kbps
Аудио JAP: AC-3 | 48000Hz | 384 Kbps | 2ch
General
Complete name : H:\VIDEO_TS\VTS_01_1.VOB
Format : MPEG-PS
File size : 1 024 MiB
Duration : 17mn 12s
Overall bit rate : 8 320 Kbps

Video
ID : 224 (0xE0)
Format : MPEG Video
Format version : Version 2
Format profile : Main@Main
Format settings, BVOP : Yes
Format settings, Matrix : Custom
Duration : 17mn 12s
Bit rate : 7 800 Kbps
Width : 720 pixels
Height : 480 pixels
Display aspect ratio : 16:9
Frame rate : 29.970 fps
Standard : NTSC
Color space : YUV
Chroma subsampling : 4:2:0
Bit depth : 8 bits
Scan type : Interlaced
Scan order : Top Field First
Compression mode : Lossy
Bits/(Pixel*Frame) : 0.753
Stream size : 956 MiB (93%)

Audio
ID : 189 (0xBD)-128 (0x80)
Format : AC-3
Format/Info : Audio Coding 3
Mode extension : CM (complete main)
Muxing mode : DVD-Video
Duration : 17mn 11s
Bit rate mode : Constant
Bit rate : 384 Kbps
Channel(s) : 2 channels
Channel positions : Front: L R
Sampling rate : 48.0 KHz
Bit depth : 16 bits
Compression mode : Lossy
Stream size : 47.2 MiB (5%)


Трекер:  [ 12-Мар-2013 16:00 ]

  

Скачать .torrent

Размер .torrent файла 38 KB


Размер: 7.52 GB
Хэш (hash) релиза: de09c5b76a59dfb691d7bb053dfb2bc4c8ab1de6

Торренты, похожие на Kanojo x Kanojo x Kanojo: San Shimai to no DokiDoki Kyoudou Seikatsu Три подружки: Бурная жизнь с тремя сестричками скачать торрент

Форум Название Автор Размер S L Добавлен
Хентай | С цензурой ·· Kanojo x Kanojo x Kanojo: San Shimai to no DokiDoki Kyoudou Seikatsu / Три подружки: Бурная жизнь с тремя сестричками (Murayama Kousuke, Milky Animation Label) (ep. 1-3 of 3) [cen] [2009 г., Big tits, Oral sex, Harem, Incest, Blu-Ray] [jap] LinGr 1100897467610.25 GB 0 0 1383402817

17:33

2-Ноя-13

Еще никто не оставлял запись к записи скачать торрент Kanojo x Kanojo x Kanojo: San Shimai to no DokiDoki Kyoudou Seikatsu Три подружки: Бурная жизнь с тремя сестричками . Будь первым!

!Обратная связь