Скачать порно через торрент Princess Knight Catue Принцесса-рыцарь Катюа UnionPeer.org бесплатно онлайн HD качество

Скачать новое порно 2015, 2014 новинки через торрент UnionPeer.org

Порно торрент бесплатно ЮнионПир.орг

Если у вас наблюдаются проблемы со скриншотами, переходом по ссылками, скачиванием торрентов - проблемы в блокировщике рекламы AdBlock. #хорошегоДня!


Статистика раздачи
Размер:  6.36 GB   |    Зарегистрирован:  4 года 8 месяцев   |    .torrent скачан:  226 раз   |   
Раздают:  1  
   
Загрузка...
 
Автор Сообщение

Galfimbul

avatar Galfimbul


プリンセスナイト☆カチュア | Princess Knight Catue | Принцесса-рыцарь Катюа


Год выпуска: 2010
Страна: Япония
Жанр: anal, big tits, demons, fantasy, group, milk, oral, rape
Продолжительность: >3 эп. по 30 мин.
Субтитры: Отсутствуют
Цензура: Присутствует
Режиссёр: Makino Yukihiro
Студия: Studio 9 Maiami | Valkyria
Описание:
Dragundaala, a country belonging to the descendants of dragons, has been conquered by an army of demons. With the king and queen captured by the demon army general, Ginyol, princess Catue attempts to rescue them, but gets caught. All is not lost, however, as Ginyol agrees to free the king and queen, and withdraw his army entirely if princess Catue can endure his sexual acts of depravity for 7 days.
Информационные ссылки: AniDB || MAL || World Art || ХентайМаг
Исходник: 3xDVD-5
Видео: MPEG2 | NTSC | 16x9 | 720x480 | 9800 Kbps
Аудио JAP: AC-3 | 48000Hz | 192 Kbps | 2ch
01. Degraded Dragon Knight
02. Debauchery Queen
03. The One Family Lunatic Feast
Special. DVD-BOX Special
General
Complete name : H:\VIDEO_TS\VTS_01_1.VOB
Format : MPEG-PS
File size : 1 024 MiB
Duration : 15mn 6s
Overall bit rate mode : Variable
Overall bit rate : 9 472 Kbps

Video
ID : 224 (0xE0)
Format : MPEG Video
Format version : Version 2
Format profile : Main@Main
Format settings, BVOP : Yes
Format settings, Matrix : Custom
Duration : 15mn 6s
Bit rate mode : Variable
Bit rate : 9 092 Kbps
Maximum bit rate : 9 800 Kbps
Width : 720 pixels
Height : 480 pixels
Display aspect ratio : 16:9
Frame rate : 29.970 fps
Standard : NTSC
Color space : YUV
Chroma subsampling : 4:2:0
Bit depth : 8 bits
Scan type : Interlaced
Scan order : Top Field First
Compression mode : Lossy
Bits/(Pixel*Frame) : 0.878
Stream size : 983 MiB (96%)

Audio
ID : 189 (0xBD)-128 (0x80)
Format : AC-3
Format/Info : Audio Coding 3
Mode extension : CM (complete main)
Muxing mode : DVD-Video
Duration : 15mn 6s
Bit rate mode : Constant
Bit rate : 192 Kbps
Channel(s) : 2 channels
Channel positions : Front: L R
Sampling rate : 48.0 KHz
Bit depth : 16 bits
Compression mode : Lossy
Stream size : 20.7 MiB (2%)
General
Complete name : H:\VIDEO_TS\VTS_01_1.VOB
Format : MPEG-PS
File size : 1 024 MiB
Duration : 15mn 6s
Overall bit rate mode : Variable
Overall bit rate : 9 474 Kbps

Video
ID : 224 (0xE0)
Format : MPEG Video
Format version : Version 2
Format profile : Main@Main
Format settings, BVOP : Yes
Format settings, Matrix : Custom
Duration : 15mn 6s
Bit rate mode : Variable
Bit rate : 9 093 Kbps
Maximum bit rate : 9 800 Kbps
Width : 720 pixels
Height : 480 pixels
Display aspect ratio : 16:9
Frame rate : 29.970 fps
Standard : NTSC
Color space : YUV
Chroma subsampling : 4:2:0
Bit depth : 8 bits
Scan type : Interlaced
Scan order : Top Field First
Compression mode : Lossy
Bits/(Pixel*Frame) : 0.878
Stream size : 983 MiB (96%)

Audio
ID : 189 (0xBD)-128 (0x80)
Format : AC-3
Format/Info : Audio Coding 3
Mode extension : CM (complete main)
Muxing mode : DVD-Video
Duration : 15mn 6s
Bit rate mode : Constant
Bit rate : 192 Kbps
Channel(s) : 2 channels
Channel positions : Front: L R
Sampling rate : 48.0 KHz
Bit depth : 16 bits
Compression mode : Lossy
Stream size : 20.7 MiB (2%)
General
Complete name : H:\VIDEO_TS\VTS_01_1.VOB
Format : MPEG-PS
File size : 1 024 MiB
Duration : 15mn 4s
Overall bit rate mode : Variable
Overall bit rate : 9 492 Kbps

Video
ID : 224 (0xE0)
Format : MPEG Video
Format version : Version 2
Format profile : Main@Main
Format settings, BVOP : Yes
Format settings, Matrix : Custom
Duration : 15mn 4s
Bit rate mode : Variable
Bit rate : 9 112 Kbps
Maximum bit rate : 9 800 Kbps
Width : 720 pixels
Height : 480 pixels
Display aspect ratio : 16:9
Frame rate : 29.970 fps
Standard : NTSC
Color space : YUV
Chroma subsampling : 4:2:0
Bit depth : 8 bits
Scan type : Interlaced
Scan order : Top Field First
Compression mode : Lossy
Bits/(Pixel*Frame) : 0.880
Stream size : 983 MiB (96%)

Audio
ID : 189 (0xBD)-128 (0x80)
Format : AC-3
Format/Info : Audio Coding 3
Mode extension : CM (complete main)
Muxing mode : DVD-Video
Duration : 15mn 4s
Bit rate mode : Constant
Bit rate : 192 Kbps
Channel(s) : 2 channels
Channel positions : Front: L R
Sampling rate : 48.0 KHz
Bit depth : 16 bits
Compression mode : Lossy
Stream size : 20.7 MiB (2%)


Трекер:  [ 12-Мар-2013 16:00 ]

  

Скачать .torrent

Размер .torrent файла 32 KB


Размер: 6.36 GB
Хэш (hash) релиза: 354b66a0fbe2f9b0438d10509b4e4b65f32a7ece

Торренты, похожие на Princess Knight Catue Принцесса-рыцарь Катюа скачать торрент

Форум Название Автор Размер S L Добавлен
Хентай | С цензурой ·· Princess Knight Catue / Princess Knight Kachua / Принцесса-рыцарь Катюа: Падшая валькирия (Makino Yukihiro, Studio 9 Maiami) (ep. 1-3 of 3 + special) [cen] [2010-2011 г. Anal, Demons, Fantasy, Big tits, Rape, Oral, Group, DVDRip] [jap/eng/rus] Galfimbul 945978276902 MB 3 0 1395755609

16:53

25-Мар-14

Еще никто не оставлял запись к записи скачать торрент Princess Knight Catue Принцесса-рыцарь Катюа . Будь первым!

!Обратная связь