Скачать через торрент музыку PORTISHEAD - Roseland New York бесплатно без регистрации torrent

Если у вас наблюдаются проблемы со скриншотами, переходом по ссылками, скачиванием торрентов - проблемы в блокировщике рекламы AdBlock. #хорошегоДня!


Статистика раздачи
Размер:  7.93 GB   |    Зарегистрирован:  4 года 7 месяцев   |    .torrent скачан:  37 раз   |   
Раздают:  1  
   
Загрузка...
 
Автор Сообщение

Galfimbul

avatar Galfimbul


PORTISHEAD - Roseland New York

Страна: UK
Жанр: Trip-Hop; Live
Продолжительность: 01:33:00
Год выпуска: 2002 г.
Лейбл: GO BEAT

Треклист:
1. "Humming"
2. "Cowboys"
3. "All Mine"
4. "Half Day Closing"
5. "Over"
6. "Only You"
7. "Seven Months"
8. "Numb"
9. "Undenied"
10. "Mysterons"
11. "Sour Times"
12. "Elysium"
13. "Glory Box"
14. "Roads"
15. "Strangers"
16. "Western Eyes"

Спасибо, Nebarmaley


Разбивка на главы по трекам: есть
Качество : DVD9
Формат: DVD video
Видео кодек: MPEG2
Аудио кодек: AC3
Видео: MPEG2 Video 720x480 (4:3) 29.97fps 8000kbps
Аудио: Dolby AC3 48000Hz 6ch 448 kbps
Аудио2: Dolby AC3 48000Hz 2ch 224 kbps
General Complete name : C:\Users\Bishop\Downloads\PORTISH_Roseland_New_York.(2002.Go_Beat.USA).(DVD-9)\VIDEO_TS\VTS_03_3.VOB Format : MPEG-PS File size : 1 024 MiB Duration : 22mn 10s Overall bit rate mode : Variable Overall bit rate : 6 454 Kbps Video #224 ID : 224 (0xE0) Format : MPEG Video Format version : Version 2 Format profile : Main@Main Format settings, BVOP : Yes Format settings, Matrix : Default Duration : 22mn 10s Bit rate mode : Variable Bit rate : 5 654 Kbps Maximum bit rate : 8 000 Kbps Width : 720 pixels Height : 480 pixels Display aspect ratio : 4:3 Frame rate : 29.970 fps Standard : NTSC Color space : YUV Chroma subsampling : 4:2:0 Bit depth : 8 bits Scan type : Interlaced Scan order : Top Field First Compression mode : Lossy Bits/(Pixel*Frame) : 0.546 Stream size : 897 MiB (88%) Color primaries : SMPTE 170M Transfer characteristics : SMPTE 170M Matrix coefficients : SMPTE 170M Audio #189-128 ID : 189 (0xBD)-128 (0x80) Format : AC-3 Format/Info : Audio Coding 3 Mode extension : CM (complete main) Format settings, Endianness : Big Muxing mode : DVD-Video Duration : 22mn 10s Bit rate mode : Constant Bit rate : 224 Kbps Channel(s) : 2 channels Channel positions : Front: L R Sampling rate : 48.0 KHz Bit depth : 16 bits Compression mode : Lossy Delay relative to video : -532ms Stream size : 35.5 MiB (3%) Audio #189-129 ID : 189 (0xBD)-129 (0x81) Format : AC-3 Format/Info : Audio Coding 3 Mode extension : CM (complete main) Format settings, Endianness : Big Muxing mode : DVD-Video Duration : 22mn 10s Bit rate mode : Constant Bit rate : 448 Kbps Channel(s) : 6 channels Channel positions : Front: L C R, Side: L R, LFE Sampling rate : 48.0 KHz Bit depth : 16 bits Compression mode : Lossy Delay relative to video : -596ms Stream size : 71.1 MiB (7%)


Трекер:  [ 19-Мар-2013 18:51 ]

  

Скачать .torrent

Размер .torrent файла 21 KB


Размер: 7.93 GB
Хэш (hash) релиза: 54fcc7fcb166f80646e9daf5f86e0f25633e1798

Торренты, похожие на PORTISHEAD - Roseland New York скачать торрент

Форум Название Автор Размер S L Добавлен
Электронная музыка (video) ·· Portishead - Roseland New York [2002 г., TripHop, DVD9] Galfimbul 75002490886.99 GB 0 0 1294835605

15:33

12-Янв-11

Электронная музыка (video) ·· PORTISHEAD - Roseland New York [1998 г., Trip-Hop, DVD5] Galfimbul 46754324484.35 GB 0 0 1294835465

15:31

12-Янв-11

Еще никто не оставлял запись к записи скачать торрент PORTISHEAD - Roseland New York . Будь первым!

!Обратная связь