Скачать через торрент музыку До сентября Until September бесплатно без регистрации torrent

Если у вас наблюдаются проблемы со скриншотами, переходом по ссылками, скачиванием торрентов - проблемы в блокировщике рекламы AdBlock. #хорошегоДня!


Статистика раздачи
Размер:  363 MB   |    Зарегистрирован:  4 года 3 месяца   |    .torrent скачан:  29 раз   |   
Раздают:  1  
   
Загрузка...
 
Автор Сообщение

Galfimbul

avatar Galfimbul


До сентября / Until September

Жанр: Score
Композитор: John Barry
Год выпуска диска: 2011
Год выпуска фильма: 1984
Производитель диска: USA
Издатель (лейбл): Kritzerland
Номер по катологу: KR 20018-9

Аудиокодек: FLAC (*.flac)
Тип рипа: image+.cue
Битрейт аудио: lossless
Продолжительность: 66.51
Источник: собственный рип
Наличие сканов в содержимом раздачи: да (600 dpi)
Film Score
01. Main Title – Until September [01:18.59]
02. Waiting / First Flight [01:51.04]
03. Second Spat [01:52.69]
04. Foreplay [02:50.45]
05. Score [01:07.23]
06. Candle Light [02:33.52]
07. The Morning After [02:11.17]
08. Excuse [01:02.56]
09. It’s Love [00:59.14]
10. Memories [03:27.40]
11. One More Time [02:44.23]
12. Hotel [01:52.15]
13. Seine [01:53.02]
14. Not Again! [01:34.61]
15. He Catches Her [05:45.60]
16. End Title – Until September [02:35.14]

Original Album Program
17. Main Title – Until September [01:18.59]
18. It’s Love [00:59.14]
19. Not Again! [01:34.61]
20. Second Spat [01:52.69]
21. He Catches Her [05:45.60]
22. Candle Light [02:33.52]
23. Seine [01:53.02]
24. Foreplay [02:50.45]
25. One More Time [02:44.23]
26. Waiting [01:29.37]
27. Memories [03:27.40]
28. The Morning After [02:11.17]
29. End Title – Until September [02:30.14]
Exact Audio Copy V1.0 beta 3 from 29. August 2011

EAC extraction logfile from 13. February 2013, 22:14

John Barry / Until September

Used drive : TSSTcorpCDDVDW SH-S202H Adapter: 0 ID: 0

Read mode : SecureUtilize accurate stream : YesDefeat audio cache : YesMake use of C2 pointers : No

Read offset correction : 6Overread into Lead-In and Lead-Out : NoFill up missing offset samples with silence : YesDelete leading and trailing silent blocks : NoNull samples used in CRC calculations : YesUsed interface : Native Win32 interface for Win NT & 2000

Used output format : Internal WAV RoutinesSample format : 44.100 Hz; 16 Bit; Stereo

TOC of the extracted CD

Track | Start | Length | Start sector | End sector --------------------------------------------------------- 1 | 0:00.00 | 1:18.59 | 0 | 5908 2 | 1:18.59 | 1:51.04 | 5909 | 14237 3 | 3:09.63 | 1:52.69 | 14238 | 22706 4 | 5:02.57 | 2:50.45 | 22707 | 35501 5 | 7:53.27 | 1:07.23 | 35502 | 40549 6 | 9:00.50 | 2:33.52 | 40550 | 52076 7 | 11:34.27 | 2:11.17 | 52077 | 61918 8 | 13:45.44 | 1:02.56 | 61919 | 66624 9 | 14:48.25 | 0:59.14 | 66625 | 71063 10 | 15:47.39 | 3:27.40 | 71064 | 86628 11 | 19:15.04 | 2:44.23 | 86629 | 98951 12 | 21:59.27 | 1:52.15 | 98952 | 107366 13 | 23:51.42 | 1:53.02 | 107367 | 115843 14 | 25:44.44 | 1:34.61 | 115844 | 122954 15 | 27:19.30 | 5:45.60 | 122955 | 148889 16 | 33:05.15 | 2:35.14 | 148890 | 160528 17 | 35:40.29 | 1:18.59 | 160529 | 166437 18 | 36:59.13 | 0:59.14 | 166438 | 170876 19 | 37:58.27 | 1:34.61 | 170877 | 177987 20 | 39:33.13 | 1:52.69 | 177988 | 186456 21 | 41:26.07 | 5:45.60 | 186457 | 212391 22 | 47:11.67 | 2:33.52 | 212392 | 223918 23 | 49:45.44 | 1:53.02 | 223919 | 232395 24 | 51:38.46 | 2:50.45 | 232396 | 245190 25 | 54:29.16 | 2:44.23 | 245191 | 257513 26 | 57:13.39 | 1:29.37 | 257514 | 264225 27 | 58:43.01 | 3:27.40 | 264226 | 279790 28 | 62:10.41 | 2:11.17 | 279791 | 289632 29 | 64:21.58 | 2:30.14 | 289633 | 300896

Range status and errors

Selected range

Filename D:\Torrent\Мои раздачи\Until September\John Barry - Until September.wav

Peak level 87.7 % Extraction speed 7.4 X Range quality 100.0 % Test CRC 6492B419 Copy CRC 6492B419 Copy OK

No errors occurred

AccurateRip summary

Track 1 not present in databaseTrack 2 not present in databaseTrack 3 not present in databaseTrack 4 not present in databaseTrack 5 not present in databaseTrack 6 not present in databaseTrack 7 not present in databaseTrack 8 not present in databaseTrack 9 not present in databaseTrack 10 not present in databaseTrack 11 not present in databaseTrack 12 not present in databaseTrack 13 not present in databaseTrack 14 not present in databaseTrack 15 not present in databaseTrack 16 not present in databaseTrack 17 not present in databaseTrack 18 not present in databaseTrack 19 not present in databaseTrack 20 not present in databaseTrack 21 not present in databaseTrack 22 not present in databaseTrack 23 not present in databaseTrack 24 not present in databaseTrack 25 not present in databaseTrack 26 not present in databaseTrack 27 not present in databaseTrack 28 not present in databaseTrack 29 not present in database

None of the tracks are present in the AccurateRip database

End of status report

==== Log checksum 9C2CCF2F9876E3F390DFD7FD78200B567803F154758BC252B9120C3DF6EB3EEE ====
В честь Международного женского дня - музыка к одному из самых романтических фильмов Джона Барри - До сентября.
Девушка отстает от группы в аэропорту самого романтического города мира - Парижа. Встречает молодого, богатого и симпатичного француза. Завязываются отношения. Он признается, что женат. Вскоре она готовится навсегда покинуть Париж. Он приезжает в аэропорт в последний момент и говорит, что ушел от жены. Все счастливы - Happy End!
Сюжет незатейлив и прост. Но в 1984 году публика его не слишком оценила. Возможно с режиссером Ричардом Маркуэндом сыграла злую шутку его предыдущая работа - все-таки после эпичного шестого эпизода Звездных войн от него вряд ли ждали лиричной мелодрамы. Зато фильм подарил нам пусть краткосрочный (всего 3 фильма), но очень крепкий творческий союз - для двух своих последующих фильмов Маркуэнд без лишних вопросов звал Джона Барри.
Кстати, чуть позже фильм добился признания - его рейтинги показов по кабельному в Штатах и Европе были очень приличными.
Да и музыка оказалась очень востребованной - первое издание полной версии саундтрека от Intrada тиражом в 1200 экземпляров было распродано меньше чем за сутки. Спустя пару месяцев после смерти Барри Kritzerland выпустил данное издание, тираж в 1000 экземпляров тоже разошелся меньше чем за 2,5 дня...
Данный альбом представляет сразу две программы: в начале - практически вся музыка в хронологическом порядке (один 50-секундный фрагмент был утерян). Вторая часть диска - оригинальный альбом 1984 года. В качестве дополнительного бонуса - сканы буклет от Intrada (сразу предупреждаю - не личные, найдено в сети!)



Трекер:  [ 12-Июн-2013 16:34 ]

  

Скачать .torrent

Размер .torrent файла 15 KB


Размер: 363 MB
Хэш (hash) релиза: 6e65b30e12c20bcc22c01d79710c469d4e2f8d8e

bot

Топик был перенесен в форум Саундтреки к фильмам и мультфильмам (lossless)

Перенес Galfimbul

Хотите добавить комментарий к записи скачать торрент До сентября Until September

!Обратная связь