Скачать через торрент Чёрная Лагуна: Кровавая тропа Роберты Black Lagoon: Robertas Blood Trail бесплатно Аниме Все серии на русском torrent

Если у вас наблюдаются проблемы со скриншотами, переходом по ссылками, скачиванием торрентов - проблемы в блокировщике рекламы AdBlock. #хорошегоДня!


Статистика раздачи
Размер:  2.57 GB   |    Зарегистрирован:  4 года 6 месяцев   |    .torrent скачан:  41 раз   |   
Раздают:  1  
   
Загрузка...
 
Автор Сообщение

Galfimbul

avatar Galfimbul


Чёрная Лагуна: Кровавая тропа Роберты
Black Lagoon: Roberta''s Blood Trail

Год выпуска: 2010 г.
Страна: Япония
Жанр: приключения, боевик
Продолжительность: (5 эп.) 35 мин.
Перевод: Субтитры (Dreamers Team)
Режиссер: Катабути Сунао / Katabuchi Sunao
Студия:
Описание: Роберта, террористка-горничная, боевик ФАРК, появившаяся в первом сезоне "Черной Лагуны" (в 8 серии), возвращаются к нам в пятисерийной OVA. Действия будут происходить как в знакомом нам с вами Роанапуре, так и в других весьма экзотических местах.
Мы увидим всех героев оригинального аниме, плюс к ним добавится парочка новых необычных персонажей. События коснуться непосредственно команды "Лагуны", а вот куда приведут эти самые события - это вам и предстоит узнать, посмотрев данную 5-серийную арку, продолжающую оригинальное аниме.
Качество: BDRip [TastyMelon]
Тип видео: Без хардсаба
Формат видео: MKV
Видео: MPEG4 Video (H264), 1280x720, ~1 810 Kbps, 23.976fps, 8bit
Аудио: Dolby AC3, 48kHz, ~384 Kbps, 2ch, Японский
Субтитры: Русские, ASS (внешние)
Субтитры: Английские, ASS (в составе контейнера)
01. Collateral Massacre
02. An Office Man''s Tactics
03. Angels in the Crosshairs
04. Oversaturation Kill Box
05. Codename Paradise, Status MIA
GeneralUnique ID : 204324746330088350155645871626416017610 (0x99B783C5958879919153D2581F53D0CA)Complete name : E:\[_Download_]\[TastyMelon]_Black_Lagoon_OVA_-_Roberta''s_Blood_Trail_[BD][720p]\Black Lagoon - Roberta''s Blood Trail - 01.mkvFormat : MatroskaFormat version : Version 2File size : 563 MiBDuration : 34mn 19sOverall bit rate : 2 293 KbpsMovie name : Black Lagoon: Roberta''s Blood Trail - 01 Collateral DamageEncoded date : UTC 2011-12-31 16:46:58Writing application : mkvmerge v3.4.0 (''Rapunzel'') built on May 15 2010 09:38:20Writing library : libebml v0.8.0 + libmatroska v0.9.0Attachment : Yes / Yes / Yes

VideoID : 2Format : AVCFormat/Info : Advanced Video CodecFormat profile : High@L3.1Format settings, CABAC : YesFormat settings, ReFrames : 4 framesCodec ID : V_MPEG4/ISO/AVCDuration : 34mn 19sBit rate : 1 863 KbpsWidth : 1 280 pixelsHeight : 720 pixelsDisplay aspect ratio : 16:9Frame rate mode : ConstantFrame rate : 23.976 fpsColor space : YUVChroma subsampling : 4:2:0Bit depth : 8 bitsScan type : ProgressiveBits/(Pixel*Frame) : 0.084Stream size : 457 MiB (81%)Title : Black Lagoon OVA Roberta''s Blood Trail - 01Writing library : x264 core 98 r1649 20cbe10Encoding settings : cabac=1 / ref=3 / deblock=1:1:1 / analyse=0x3:0x113 / me=hex / subme=7 / psy=1 / psy_rd=0.40:0.00 / mixed_ref=1 / me_range=16 / chroma_me=1 / trellis=1 / 8x8dct=1 / cqm=0 / deadzone=21,11 / fast_pskip=1 / chroma_qp_offset=-2 / threads=3 / sliced_threads=0 / nr=0 / decimate=1 / interlaced=0 / constrained_intra=0 / bframes=3 / b_pyramid=2 / b_adapt=1 / b_bias=0 / direct=1 / weightb=1 / weightp=2 / keyint=250 / keyint_min=25 / scenecut=40 / intra_refresh=0 / rc_lookahead=40 / rc=crf / mbtree=1 / crf=16.0 / qcomp=0.60 / qpmin=10 / qpmax=51 / qpstep=4 / ip_ratio=1.40 / aq=2:0.60Language : JapaneseDefault : YesForced : No

AudioID : 3Format : AC-3Format/Info : Audio Coding 3Mode extension : CM (complete main)Format settings, Endianness : BigCodec ID : A_AC3Duration : 34mn 19sBit rate mode : ConstantBit rate : 384 KbpsChannel(s) : 2 channelsChannel positions : Front: L RSampling rate : 48.0 KHzBit depth : 16 bitsCompression mode : LossyStream size : 94.3 MiB (17%)Title : JapaneseLanguage : JapaneseDefault : YesForced : No

TextID : 1Format : ASSCodec ID : S_TEXT/ASSCodec ID/Info : Advanced Sub Station AlphaCompression mode : LosslessTitle : EnglishLanguage : EnglishDefault : YesForced : No

Menu00:00:00.000 : en:Opening00:01:31.925 : en:Part A00:13:26.681 : en:Part B00:22:14.416 : en:Part C00:33:00.000 : en:Ending00:34:03.208 : en:Preview



Трекер:  [ 08-Мар-2013 13:11 ]

  

Скачать .torrent

Размер .torrent файла 14 KB


Размер: 2.57 GB
Хэш (hash) релиза: 542c4f9ff5a09fe58f66368ea2db5f17d8b12b31
Подписка на обновления:

Торренты, похожие на Чёрная Лагуна: Кровавая тропа Роберты Black Lagoon: Robertas Blood Trail скачать торрент

Форум Название Автор Размер S L Добавлен
Аниме | Rips ·· Пираты «Черной лагуны»: Кровавая тропа Роберты / Black Lagoon: Roberta's Blood Trail [OVA] [1-5 из 5][RUS(ext),JAP+SUB] [2010 г., приключения, драма, боевик, BDRip][любительская] L 16777545971.56 GB 0 0 1312990864

18:41

10-Авг-11

Аниме | Rips ·· Пираты "Черной Лагуны": Кровавая тропа Роберты / Black Lagoon: Roberta's Blood Trail [OVA] [01 из 05] [Rus] [2010 г., приключения, комедия, драма, HDRip] [Любительская] Polarnik 231499776221 MB 0 0 1290022026

22:27

17-Ноя-10

Еще никто не оставлял запись к записи скачать торрент Чёрная Лагуна: Кровавая тропа Роберты Black Lagoon: Robertas Blood Trail . Будь первым!

!Обратная связь