Скачать через торрент музыку Правила раздач в музыкальных разделах Видео бесплатно без регистрации torrent

Если у вас наблюдаются проблемы со скриншотами, переходом по ссылками, скачиванием торрентов - проблемы в блокировщике рекламы AdBlock. #хорошегоДня!


 
Автор Сообщение

Комедиант

avatar Комедиант


Правила раздач в музыкальных разделах Видео


При оформлении новой раздачи, обязательно используйте поиск по трекеру. Не забывайте про то, что планируемая Вами раздача может оказаться в составе раздачи сборника (коллекции) видеоклипов данного исполнителя, либо находиться в раздаче с более высоким качеством, поэтому производите поиск не только по названию видеоклипа, но и по исполнителю. Помните, если Ваша раздача отличается от имеющихся на трекере в худшую сторону по качеству видео, она будет закрыта модератором раздела, как повтор.

Раздача Видеоклипов в виде любых образов - ЗАПРЕЩЕНА!
Не разрешается раздача музыкального материала в любых форматах образов *.iso (mdf, nrg и прочие), вне зависимости откуда был скачан оригинал, и раздается ли он еще где-нибудь кроме unionpeer.org.

Раздача Видеоклипов в виде любых архивов - ЗАПРЕЩЕНА!
Не разрешается раздача музыкального материала в любых форматах архивов (*.rar, *.zip и прочие), вне зависимости откуда был скачан оригинал, и раздается ли он еще где-нибудь кроме unionpeer.org.

Подобные меры необходимы для обеспечения возможности пользователям скачивать по выбору только те треки или файлы которые им необходимы, не качая весь архив или образ целиком.


1.*Строго заполняйте все поля шаблона, который появляется при нажатии на кнопку , расположенную слева вверху над списком тем форума.
Внимание! Если вы не увидели шаблона, значит вы пытаетесь создать раздачу в разделе где ее размещение не предусмотрено, например подразделы "Предлагаю".
В результате заполнения шаблона, после нажатия на кнопку "Продолжить" шаблон автоматически сгенерирует код для страницы, и вы увидите его в окне для окончательного редактирования (если вы по каким-то причинам ошиблись или хотите исправить (дополнить) оформление, это всегда можно сделать нажав ссылку "Изменить" справа в углу вашего сообщения).

- Не используйте при оформлении названия раздач верхний регистр (заглавные буквы), кроме случаев воспроизведения оригинального названия.
- Запрещается в названии раздач использовать замену пробелов нижним подчеркиванием ("_"), вне зависимости от названия раздачи там где вы ее скачали.
- Не стоит в название раздачи дополнительно вписывать жанр музыки, если он уже был указан при заполнении соответствующей строчки шаблона.
- Постарайтесь не указывать более трех жанров одновременно, поскольку это затрудняет визуальное восприятие названия темы. Если же тем не менее, вы считаете необходимым указать более трех жанров одновременно (либо названия жанров слишком длинные), у вас есть возможность сделать это, дополнив в ручном режиме строку Жанр: (в окне окончательного редактирования).

Если вы выполнили все вышеуказанные условия, то после того, как сгенерируется код страницы, название вашей темы (раздачи) должно выглядеть приблизительно так:
C.C.Catch - Baby I Need Your Love [2000 г., Pop, DVDRip]
Если в раздаче "живое" выступление исполнителя (группы), то в названии темы необходимо указать - Live.
В этом случае, название вашей темы (раздачи) должно выглядеть приблизительно так:
C.C.Catch - Baby I Need Your Love (Live)[2000 г., Pop, DVDRip]

- Не делайте ошибок в названии групп, пишите их в точности так, как написано на официальном сайте группы! При этом учитывайте, что не всякие названия можно найти поиском, поэтому названия типа S.P.O.R.T. допустимо писать только так: S.P.O.R.T. (SPORT), то есть в скобках указывается название "без выкрутасов".

Примечание 1: Жанр музыки указываем на английском языке, кроме тех случаев, когда аналогичного жанра в зарубежной музыке не существует, например "частушки" и т.п.

Примечание 2: При публикации постера в вашей раздаче учитывайте, что минимальный размер картинки должен составлять 300x300 pixels, максимальный 500x500 pixels. Не у всех широкие каналы, подумайте о людях с платным трафиком. Модератор вправе по своему усмотрению попросить заменить картинку не соответствующую указанному диапазону размеров. Информацию по изготовлению постера для раздачи можно получить по ссылке.

2.*Обязательно публикуйте список клипов в Вашей раздаче (в случае, если в раздаче более одного клипа).
Примечание: Обязательно публикуйте треклист (список композиций) в Вашей раздаче (не зависимо от того концерт это, или сборник клипов). Если вы по какой-либо причине не можете опубликовать треклист, то тогда предварительно согласуйте свою раздачу с модератором раздела.
Треклист следует оформлять в неграфическом, текстовом виде.
Запрещается оформление треклистов в виде скриншотов файловых менеджеров, либо обратной стороны обложки раздаваемого диска.

3.*Указываем качество и формат видеоклипа (комбобокс (ниспадающий список)"Качество" и "Формат" шаблона). Посмотреть классификацию качества можно по ссылке.

4.*Указываем, какими кодеками (видео и аудио) закодирован видеоклип (комбобокс (ниспадающий список) "Видео кодек" и "Аудио кодек" шаблона).

Если раздаете несколько видеоклипов в одной раздаче, то качество и кодеки указываем к каждому клипу отдельно. Указание, например: Качество разное или Кодеки разные ко всем клипам сразу, не является достаточным.

5.*Обязательна публикация скриншотов, имеющих РАЗРЕШЕНИЕ ОРИГИНАЛА раздаваемого видеоклипа(ов), в виде превью. Превью - картинка сильно уменьшенного размера, при нажатии на которую, она открывается в полный размер.
Информацию по изготовлению скриншотов, можно получить по ссылке.

Примечание: При раздаче нескольких клипов в одном релизе, обязательна публикация скриншотов для каждого видеоклипа отдельно.

6. Приветствуется дополнительно указывать информацию об исполнителе (группе): биографию (историю создания) и (или) дискографию (со ссылками на уже существующие раздачи на трекере). Это придаст вашей раздаче дополнительную информативность. И позволит более подробно ознакомится с творчеством исполнителя (группы).

7. Запрещается создавать раздачи, объединяя в них видеоклипы (видеофайлы) по любому иному признаку, кроме как по исполнителю (группе). Выкладывать в одной раздаче клипы разных исполнителей, объединяя их по жанру, году выпуска, качеству, источнику и т.д. - недопустимо. Исключение составляют:
1) раздачи рипов с фирменных DVD-сборников.
2) раздачи концертов, в которых выступали разные исполнители.
8. Запрещается раздавать сборники (коллекции) видеоклипов (видеофайлов) одного исполнителя (группы) в тех случаях, когда они пересекаются с уже имеющимися сборниками (коллекциями) этого исполнителя (группы), сходными по качеству. Если вы обнаружили, что часть видеоклипов (видеофайлов) уже раздается на трекере, то вы должны поступить следующим образом:
- оформить раздачу только недостающих (неопубликованных, опубликованных с более низким качеством) клипов (видеофайлов);
- собрать полную коллекцию имеющихся на трекере клипов (видеофайлов) данного исполнителя, добавить недостающие и, предварительно посоветовавшись с модератором раздела, выложить клипографию (коллекцию).

Пользователям, решившим заняться созданием и поддержкой клипографии (коллекции) рекомендуется ознакомится с темой
Переименование файлов в раздачах (*.bat - файлы)


8.1. Модераторы вправе по своему усмотрению закрывать раздачи, которые были поглощены сборниками (коллекциями), а также раздачи с более низким качеством, в пользу новых раздач с более высоким качеством.

Примечание 1: К моменту закрытия раздачи, все пользователи находящиеся в процессе файлообмена (скачавшие торрент) будут иметь возможность скачать. По истечении двух недель закрытая тема может быть перемещена в Мусорку. В случае если участники файлообмена к истечению двухнедельного срока останутся, модератор вправе продлить срок для переноса на свое усмотрение.

Примечание 2: Правила вступают в силу и становятся обязательными, для оформления всех релизов раздела через сутки, с момента опубликования. Модератор раздела, по своему усмотрению, имеет право попросить авторов уже имеющихся раздач на трекере, привести упомянутые раздачи в полное соответствие с данными правилами.
Armin van Buuren - 51 клип + Бонус

Жанр: Trance
Качество: DVDRip, TVRip
Формат: AVI, MPG, mkv
Видео кодек: DivX, XviD, MPEG, Matroska
Аудио кодек: MP3, AC3

Информация:
Армин ван Бюрен (нидерл. Armin van Buuren, 25 декабря 1976, Лейден, Нидерланды) — DJ и продюсер, играющий в различных стилях: прогрессивный транс, трайбл прогрессив (англ. tribal progressive), эйфорический транс (англ. euphoric trance), вокальный транс (англ. vocal trance), мелодический прогрессив (англ. melodic progressive), техно.

Дата рождения - 25 декабря 1976
Место рождения - Лейден, Нидерланды
Страна - Нидерланды
Профессии - Диджей, продюсер, режиссер
Жанры - Транс, progressive trance,Uplifting trance
Лейблы - Armada, ArminD, A State Of Trance
Сайт - www.arminvanbuuren.com
Благодаря своему отцу, бывшему большим любителем электронной музыки, Армин полюбил музыку с юных лет. Помимо своей любви к электронной музыке, он интересовался различными современными технологиями и компьютерами.
Когда ему исполняется 14 лет, он покупает свой первый сэмплер и с помощью отцовского синтезатора AKAI начинает делать музыку.
По дороге в школу на своем велосипеде он часто слушает в наушниках музыку Жана Мишеля Жарра и также минимиксы Бена Либранда.

Будучи большим поклонником Бена Либранда, Армин отправил ему свою запись, которая очень понравилась Бену.
Либранд многое рассказал Армину о продюсерском и диджейском ремесле. Страсть Армина к созданию ремиксов развивалась, и он начал работать диджеем в небольшом лейденском клубе Nexus.

Закончив в 1995 году школу, Армин начинает обучение в Лейденском университете по специальности «Юриспруденция». В это же время его оборудование переезжает из спальни в настоящую студию. Первыми треками, выпущенными в этой студии, были первые хиты «Touch Me» и «Communication». Однако, как говорит Армин в своей биографии,он не любит «привязывать» себя к определенному существующему музыкальному стилю:
« Не будьте пленниками вашего собственного стиля »
Армин в Crobar, NYC, 9 ноября 2006

Сам он описывает свой стиль как «эйфория, приподнятость, мелодичность, энергия». Амбиции Ван Бьюрена приводят его к тому, что он занимается всем одновременно: учёбой, продюсированием и диджейством. Армин говорит:
« единственный путь — это получать удовлетворение от работы, которую ты делаешь »

. Его заветная мечта — делать то, что ему самому больше всего нравится и уметь радоваться этому.

Армин ведет свое собственное еженедельное радиошоу A State of Trance. В 2007 году вышел 300 юбилейный эпизод этого радиошоу. 1 мая 2008 года Армин праздновал семь лет своего радиошоу A state of Trance 350, 19 апреля в маленьком городке Утрех в Нидерландах прошло очередное шоу Армина, Armin Only 2008, на которое собралось около 16 тысяч человек. Шоу транслировалось на Голландском Национальном ТВ. Также на шоу он представил свой новый альбом Imagine.
Альбомы

* «76» (2003)
* «Shivers» (2005)
* «10 Years» (2006)
* «Imagine» (2008)
* «Imagine : The Remixes» (2009)

2000

* 2000 «001 A State of Trance» (2CD)
* 2000 «TranceMatch» вместе с System F (CD)

2001

* 2001 «002 Basic Instinct» (CD)
* 2001 «003 In Motion» (CD)

2002

* 2002 «004 Transparance» (CD)

2003

* 2003 «Universal Religion Chapter One» (CD)

2004

* 2004 «Universal Religion 2004, Live From Armada At Ibiza» (CD)
* 2004 «Big Room Trance» (CD)
* 2004 «A State Of Trance 2004» (CD)

2005

* 2005 «A State Of Trance 2005» (CD)

2006

* 2006 «A State Of Trance Year Mix 2006» (CD)
* 2006 «A State Of Trance 2006» (CD)
* 2006 «Armin Only — The Next Level» (DVD)

2007

* 2007 «A State Of Trance Year Mix 2007» (CD)
* 2007 «Universal Religion Chapter 3 — Live From Armada At Ibiza» (CD)
* 2007 «A State Of Trance 2007» (CD)
* 2007 «Limited DVD Box» (CD/DVD)
* 2007 «Armin Only — Ahoy '06» (DVD)

2008

* 2008 «A State Of Trance Year Mix 2008» (2CD)
* 2008 «Armin Only — Imagine Limited Edition» (DVD+3CD)
* 2008 «A State Of Trance 2008» (2CD)
* 2008 «Live At The Gallery, Ministry Of Sound [Mixmag Special]» (CD)
* 2008 «Armin Only — Imagine, The DVD» (DVD)

2009

* 2009 «A State Of Trance 2009» (2CD)

Источник информации

* Информация взята с Официального сайта Armin van Buuren/Releases/Albums

Видео

* 2000 Alibi — Eternity — Armin van Buuren, Tiesto
* 2001 System F — Exhale — Ferry Corsten, Armin van Buuren
* 2001 Iio — Rapture (Armin Van Buuren Remix)
* 2004 Armin van Buuren feat. Justine Suissa — Burned With Desire
* 2004 Armin van Buuren — Burned With Desire (Kyau vs. Albert Remix)
* 2004 Motorcycle — As The Rush Comes
* 2004 Oceanlab — Satellite
* 2004 Origene — Sanctuary
* 2005 Armin van Buuren — Shivers
* 2005 Interstate — I Found You
* 2005 Armin van Buuren — 24: The Longest Day
* 2005 Mischa Daniels feat Aisata — So Strong (Extreme 2005 Theme)
* 2005 Ruffneck feat Yavahn — Everybody be Somebody
* 2005 Armin van Buuren feat Jan Vayne — Serenity (Sensation White Anthem 2005)
* 2005 God is my DJ — история компании ID&T, промоутеров шоу Sensation
* 2005 Armin van Buuren & Nadia Ali — Who Is Watching (Mischa Daniels Mix)
* 2006 A State of Trance 2006 Promo
* 2006 Armada Night September 2006
* 2006 Armin Only DVD commercial
* 2006 Armin Only DVD preview
* 2006 Armin at Nature One 2006:
* Armin Van Buuren @ Nature One 2006 Part 1/4
* Armin Van Buuren @ Nature One 2006 Part 2/4
* Armin Van Buuren @ Nature One 2006 Part 3/4
* Armin Van Buuren @ Nature One 2006 Part 4/4
* 2006 Armin special TMF
* 2006 Yoshimoto — Du What U Do
* 2006 Armin van Buuren — Sail
* 2006 Armin van Buuren Interview (Racoon)
* 2006 Armin van Buuren feat. Racoon — Love You More
* 2006 Dancetrippin Armin Interview (Ocean Diva)
* 2006 Mischa Daniels — Take Me Higher
* 2007 Armin Only DVD — Ahoy
* 2008 Armin van Buuren & DJ Shah Feat. Chris Jones — Going Wrong
* 2008 Armin Only DVD
* 2008 In and Out of Love (feat. Sharon den Adel)
* 2008 Armin van Buuren feat. Jaren — Unforgivable
* 2009 Armin van Buuren feat. Jennifer Rene — Fine Without You
* 2009 Armin van Buuren feat. Jacqueline Govaert — Never Say Never
В 2006-ом году Армин занимает 2-ю позицию в престижном рейтинге DJ Top 100 по результатам голосования читателей журналов DJmag.com и TheDJList.com за 2006 год, уступая лишь Paul Van Dyk.

В 2006 году на почетной церемонии Trance Awards Армин забирает себе следующие награды:

* Best DJ
* Best Compilation
* Best Resident

обгоняя по числу номинаций Paul Van Dyk.

В 2007-ом году Армин достигает вершины престижного рейтинга DJ Top 100 по результатам голосования читателей журналов и слушателей различных радиошоу, а также клабберов всего мира. 12 января 2008 Армин получил самую престижную награду в Голландии "Buma Cultuur Pop Award" 25 марта 2008 года на ежегодной недели электронной музыки в Майами (Winter Music Conference) Армину ван Бьюрену были вручены такие награды как:

* The Best European DJ
* Best Radio Show — за авторскую программу-шоу «A State of Trance»

Таким образом он укрепил звание самого лучшего ди-джея планеты. Ежегодное голосование всех желающих, которое проводить журнал DJMAG, выявило Армина как лучшего ди-джея планеты в 2008 году.

На днях Armin Van Buuren получил награды от Trance Awards. В голосовании приняли 20 тысяч человек из 125 стран мира. В пятницу 21 ноября в клубе Ministry of Sound были вручены награды четвертой по счету премии Trance Awards.

Достижения Armin van Buuren впечатляют, он выиграл в трех номинациях: ‘A State of Trance’ как лучшее радиошоу, за выступление на Armada Nights как Best Resident и в номинации Лучший альбом со своим Imagine. И, наконец, в 2008 году Армин вновь получил первое место в DJ Top 100
Список клипов:
Format : MPEG-PS
File size : 35.4 MiB
Duration : 3mn 29s
Overall bit rate : 1 414 Kbps
Writing library : Jun 11 2000
Video #224
ID : 224 (0xE0)
Format : MPEG Video
Format version : Version 1
Format settings, Matrix : Default
Duration : 3mn 29s
Bit rate mode : Constant
Bit rate : 1 123 Kbps
Nominal bit rate : 1 200 Kbps
Width : 352 pixels
Height : 288 pixels
Display aspect ratio : 4/3
Frame rate : 25.000 fps
Scan type : Progressive
Bits/(Pixel*Frame) : 0.443
Writing library : Jun 11 2000
Audio #192
ID : 192 (0xC0)
Format : MPEG Audio
Format version : Version 1
Format profile : Layer 2
Duration : 3mn 29s
Bit rate mode : Constant
Bit rate : 192 Kbps
Channel(s) : 2 channels
Sampling rate : 44.1 KHz
Resolution : 16 bits
Video delay : -81ms
Format : AVI
Format/Info : Audio Video Interleave
File size : 48.8 MiB
Duration : 3mn 33s
Overall bit rate : 1 916 Kbps
Writing library : This file was made by AviUtl 0.96i.
Video
Format : S-Mpeg 4 v2
Codec ID : MP42
Codec ID/Info : Microsoft MPEG-4 V2
Duration : 3mn 33s
Bit rate : 1 783 Kbps
Width : 384 pixels
Height : 288 pixels
Display aspect ratio : 4/3
Frame rate : 25.000 fps
Resolution : 24 bits
Bits/(Pixel*Frame) : 0.645
Stream size : 45.4 MiB (93%)
Audio
Format : MPEG Audio
Format version : Version 1
Format profile : Layer 3
Codec ID : 55
Codec ID/Hint : MP3
Duration : 3mn 33s
Bit rate mode : Constant
Bit rate : 128 Kbps
Channel(s) : 2 channels
Sampling rate : 48.0 KHz
Resolution : 16 bits
Stream size : 3.26 MiB (7%)
Alignment : Split accross interleaves
Interleave, duration : 479 ms (11.98 video frames)
Interleave, preload duration : 450 ms
Format : MPEG-PS
File size : 42.1 MiB
Duration : 4mn 13s
Overall bit rate : 1 396 Kbps
Writing library : encoded by TMPGEnc (ver. 2.01.30.116)
Video #224
ID : 224 (0xE0)
Format : MPEG Video
Format version : Version 1
Format settings, Matrix : Default
Duration : 4mn 13s
Bit rate mode : Constant
Bit rate : 1 075 Kbps
Nominal bit rate : 1 150 Kbps
Width : 352 pixels
Height : 288 pixels
Display aspect ratio : 4/3
Frame rate : 25.000 fps
Scan type : Progressive
Bits/(Pixel*Frame) : 0.424
Writing library : TMPGEnc 2.01.30.116
Audio #192
ID : 192 (0xC0)
Format : MPEG Audio
Format version : Version 1
Format profile : Layer 2
Duration : 4mn 13s
Bit rate mode : Constant
Bit rate : 224 Kbps
Channel(s) : 2 channels
Sampling rate : 44.1 KHz
Resolution : 16 bits
Format : MPEG-PS
File size : 85.4 MiB
Duration : 4mn 38s
Overall bit rate : 2 569 Kbps
Writing library : encoded by TMPGEnc (ver. 2.521.58.169)
Video #224
ID : 224 (0xE0)
Format : MPEG Video
Format version : Version 2
Format profile : Main@Main
Format settings, Matrix : Default
Duration : 4mn 38s
Bit rate mode : Variable
Bit rate : 2 167 Kbps
Nominal bit rate : 2 496 Kbps
Width : 480 pixels
Height : 576 pixels
Display aspect ratio : 4/3
Frame rate : 25.000 fps
Standard : PAL
Colorimetry : 4:2:0
Scan type : Interlaced
Scan order : Top Field First
Bits/(Pixel*Frame) : 0.314
Writing library : TMPGEnc 2.521.58.169
Audio #192
ID : 192 (0xC0)
Format : MPEG Audio
Format version : Version 1
Format profile : Layer 2
Duration : 4mn 38s
Bit rate mode : Constant
Bit rate : 224 Kbps
Channel(s) : 2 channels
Sampling rate : 44.1 KHz
Resolution : 16 bits
Format : MPEG-PS
File size : 78.2 MiB
Duration : 4mn 7s
Overall bit rate : 2 652 Kbps
Writing library : encoded by TMPGEnc (ver. 2.59.47.155)
Video #224
ID : 224 (0xE0)
Format : MPEG Video
Format version : Version 2
Format profile : Main@Main
Format settings, Matrix : Default
Duration : 4mn 7s
Bit rate mode : Variable
Bit rate : 2 244 Kbps
Nominal bit rate : 2 496 Kbps
Width : 480 pixels
Height : 480 pixels
Display aspect ratio : 4/3
Frame rate : 29.970 fps
Standard : NTSC
Colorimetry : 4:2:0
Scan type : Progressive
Bits/(Pixel*Frame) : 0.325
Writing library : TMPGEnc 2.59.47.155
Audio #192
ID : 192 (0xC0)
Format : MPEG Audio
Format version : Version 1
Format profile : Layer 2
Duration : 4mn 6s
Bit rate mode : Constant
Bit rate : 224 Kbps
Channel(s) : 2 channels
Sampling rate : 44.1 KHz
Resolution : 16 bits
Format : DivX
Format/Info : Hack of AVI
File size : 46.0 MiB
Duration : 3mn 55s
Overall bit rate : 1 642 Kbps
Video
Format : MPEG-4 Visual
Format settings, BVOP : Yes
Format settings, QPel : No
Format settings, GMC : No warppoints
Format settings, Matrix : Default
Muxing mode : Packed bitstream
Codec ID : DX50
Codec ID/Hint : DivX 5
Duration : 3mn 55s
Bit rate : 1 440 Kbps
Width : 704 pixels
Height : 384 pixels
Display aspect ratio : 16/9
Frame rate : 25.000 fps
Resolution : 24 bits
Colorimetry : 4:2:0
Scan type : Progressive
Bits/(Pixel*Frame) : 0.213
Stream size : 40.4 MiB (88%)
Title : Video
Writing library : DivX 1670
Audio
Format : MPEG Audio
Format version : Version 1
Format profile : Layer 3
Codec ID : 55
Codec ID/Hint : MP3
Duration : 3mn 55s
Bit rate mode : Constant
Bit rate : 192 Kbps
Channel(s) : 2 channels
Sampling rate : 44.1 KHz
Resolution : 16 bits
Stream size : 5.38 MiB (12%)
Alignment : Split accross interleaves
Interleave, duration : 40 ms (1.00 video frame)
Interleave, preload duration : 500 ms
Title : Audio
Format : AVI
Format/Info : Audio Video Interleave
File size : 63.5 MiB
Duration : 8mn 3s
Overall bit rate : 1 102 Kbps
Video
Format : MPEG-4 Visual
Format settings, BVOP : Yes
Format settings, QPel : No
Format settings, GMC : No warppoints
Format settings, Matrix : Default
Codec ID : DX50
Codec ID/Hint : DivX 5
Duration : 3mn 21s
Bit rate : 2 474 Kbps
Width : 640 pixels
Height : 480 pixels
Display aspect ratio : 1.455
Frame rate : 25.000 fps
Resolution : 24 bits
Colorimetry : 4:2:0
Scan type : Progressive
Bits/(Pixel*Frame) : 0.322
Stream size : 59.4 MiB (94%)
Title : AVI-Stream
Writing library : DivX 6.5.1 (UTC 2007-03)
Audio
Format : MPEG Audio
Format version : Version 1
Format profile : Layer 3
Codec ID : 55
Codec ID/Hint : MP3
Duration : 8mn 3s
Bit rate mode : Constant
Bit rate : 160 Kbps
Channel(s) : 2 channels
Sampling rate : 48.0 KHz
Resolution : 16 bits
Stream size : 3.84 MiB (6%)
Alignment : Split accross interleaves
Interleave, duration : 40 ms (1.00 video frame)
Title : Audio Stream
Format : DivX
Format/Info : Hack of AVI
File size : 40.0 MiB
Duration : 3mn 2s
Overall bit rate : 1 841 Kbps
Video
Format : MPEG-4 Visual
Format settings, BVOP : Yes
Format settings, QPel : No
Format settings, GMC : No warppoints
Format settings, Matrix : Default
Muxing mode : Packed bitstream
Codec ID : DX50
Codec ID/Hint : DivX 5
Duration : 3mn 2s
Bit rate : 1 639 Kbps
Width : 704 pixels
Height : 384 pixels
Display aspect ratio : 16/9
Frame rate : 25.000 fps
Resolution : 24 bits
Colorimetry : 4:2:0
Scan type : Progressive
Bits/(Pixel*Frame) : 0.242
Stream size : 35.6 MiB (89%)
Title : Video
Writing library : DivX 1670
Audio
Format : MPEG Audio
Format version : Version 1
Format profile : Layer 3
Codec ID : 55
Codec ID/Hint : MP3
Duration : 3mn 2s
Bit rate mode : Constant
Bit rate : 192 Kbps
Channel(s) : 2 channels
Sampling rate : 44.1 KHz
Resolution : 16 bits
Stream size : 4.18 MiB (10%)
Alignment : Split accross interleaves
Interleave, duration : 40 ms (1.00 video frame)
Interleave, preload duration : 500 ms
Title : Audio
Format : MPEG-PS
File size : 67.8 MiB
Duration : 3mn 38s
Overall bit rate : 2 601 Kbps
Video #224
ID : 224 (0xE0)
Format : MPEG Video
Format version : Version 2
Format profile : Main@Main
Format settings, Matrix : Default
Duration : 3mn 33s
Bit rate mode : Variable
Bit rate : 2 197 Kbps
Nominal bit rate : 2 496 Kbps
Width : 480 pixels
Height : 576 pixels
Display aspect ratio : 4/3
Frame rate : 25.000 fps
Colorimetry : 4:2:0
Scan type : Progressive
Bits/(Pixel*Frame) : 0.318
Audio #192
ID : 192 (0xC0)
Format : MPEG Audio
Format version : Version 1
Format profile : Layer 2
Duration : 3mn 38s
Bit rate mode : Constant
Bit rate : 224 Kbps
Channel(s) : 2 channels
Sampling rate : 44.1 KHz
Resolution : 16 bits
Format : MPEG-PS
File size : 101 MiB
Duration : 5mn 17s
Overall bit rate : 2 676 Kbps
Video #224
ID : 224 (0xE0)
Format : MPEG Video
Format version : Version 2
Format profile : Main@Main
Format settings, Matrix : Default
Duration : 5mn 17s
Bit rate mode : Variable
Bit rate : 2 267 Kbps
Nominal bit rate : 2 496 Kbps
Width : 480 pixels
Height : 480 pixels
Display aspect ratio : 4/3
Frame rate : 29.970 fps
Colorimetry : 4:2:0
Scan type : Progressive
Bits/(Pixel*Frame) : 0.328
Audio #192
ID : 192 (0xC0)
Format : MPEG Audio
Format version : Version 1
Format profile : Layer 2
Duration : 5mn 17s
Bit rate mode : Constant
Bit rate : 224 Kbps
Channel(s) : 2 channels
Sampling rate : 44.1 KHz
Resolution : 16 bits
Format : AVI
Format/Info : Audio Video Interleave
File size : 101 MiB
Duration : 2mn 56s
Overall bit rate : 4 781 Kbps
Writing application : VirtualDubMod 1.5.4.1 (build 2178/release)
Writing library : VirtualDubMod build 2178/release
Video
Format : MPEG-4 Visual
Format settings, BVOP : Yes
Format settings, QPel : No
Format settings, GMC : No warppoints
Format settings, Matrix : Default
Muxing mode : Packed bitstream
Codec ID : DX50
Codec ID/Hint : DivX 5
Duration : 2mn 56s
Bit rate : 4 581 Kbps
Width : 720 pixels
Height : 416 pixels
Display aspect ratio : 16/9
Frame rate : 29.970 fps
Resolution : 24 bits
Colorimetry : 4:2:0
Scan type : Progressive
Bits/(Pixel*Frame) : 0.510
Stream size : 96.3 MiB (96%)
Writing library : DivX 6.8.3 (UTC 2008-06-07)
Audio
Format : AC-3
Format/Info : Audio Coding 3
Codec ID : 2000
Duration : 2mn 56s
Bit rate mode : Constant
Bit rate : 192 Kbps
Channel(s) : 2 channels
Channel positions : L R
Sampling rate : 48.0 KHz
Video delay : 20ms
Stream size : 4.03 MiB (4%)
Alignment : Split accross interleaves
Interleave, duration : 96 ms (2.88 video frames)
Interleave, preload duration : 96 ms
Format : AVI
Format/Info : Audio Video Interleave
File size : 47.4 MiB
Duration : 8mn 7s
Overall bit rate : 816 Kbps
Video
Format : MPEG-4 Visual
Format settings, BVOP : Yes
Format settings, QPel : No
Format settings, GMC : No warppoints
Format settings, Matrix : Default
Muxing mode : Packed bitstream
Codec ID : DX50
Codec ID/Hint : DivX 5
Duration : 3mn 23s
Bit rate : 1 790 Kbps
Width : 640 pixels
Height : 480 pixels
Display aspect ratio : 1.455
Frame rate : 25.000 fps
Resolution : 24 bits
Colorimetry : 4:2:0
Scan type : Progressive
Bits/(Pixel*Frame) : 0.233
Stream size : 43.3 MiB (91%)
Title : AVI-Stream
Writing library : DivX 6.5.1 (UTC 2007-03)
Audio
Format : MPEG Audio
Format version : Version 1
Format profile : Layer 3
Codec ID : 55
Codec ID/Hint : MP3
Duration : 8mn 7s
Bit rate mode : Constant
Bit rate : 160 Kbps
Channel(s) : 2 channels
Sampling rate : 48.0 KHz
Resolution : 16 bits
Stream size : 3.87 MiB (8%)
Alignment : Split accross interleaves
Interleave, duration : 40 ms (1.00 video frame)
Title : Audio Stream
Format : AVI
Format/Info : Audio Video Interleave
File size : 34.7 MiB
Duration : 3mn 28s
Overall bit rate : 1 396 Kbps
Writing application : VirtualDubMod 1.5.10.1 (build 2439/release)
Writing library : VirtualDubMod build 2439/release
Video
Format : MPEG-4 Visual
Format profile : Streaming Video@L1
Format settings, BVOP : Yes
Format settings, QPel : No
Format settings, GMC : No warppoints
Format settings, Matrix : Default
Codec ID : XVID
Codec ID/Hint : XviD
Duration : 3mn 28s
Bit rate : 1 194 Kbps
Width : 576 pixels
Height : 432 pixels
Display aspect ratio : 4/3
Frame rate : 25.000 fps
Resolution : 24 bits
Colorimetry : 4:2:0
Scan type : Progressive
Bits/(Pixel*Frame) : 0.192
Stream size : 29.7 MiB (86%)
Writing library : XviD 1.0.3 (UTC 2004-12-20)
Audio
Format : AC-3
Format/Info : Audio Coding 3
Format profile : Dolby Digital
Codec ID : 2000
Duration : 3mn 28s
Bit rate mode : Constant
Bit rate : 192 Kbps
Channel(s) : 2 channels
Channel positions : L R
Sampling rate : 48.0 KHz
Stream size : 4.78 MiB (14%)
Alignment : Split accross interleaves
Interleave, duration : 40 ms (1.00 video frame)
Interleave, preload duration : 500 ms
Format : DivX
Format/Info : Hack of AVI
File size : 42.4 MiB
Duration : 3mn 14s
Overall bit rate : 1 833 Kbps
Video
Format : MPEG-4 Visual
Format settings, BVOP : Yes
Format settings, QPel : No
Format settings, GMC : No warppoints
Format settings, Matrix : Default
Muxing mode : Packed bitstream
Codec ID : DX50
Codec ID/Hint : DivX 5
Duration : 3mn 14s
Bit rate : 1 664 Kbps
Width : 704 pixels
Height : 272 pixels
Display aspect ratio : 2.588
Frame rate : 25.000 fps
Resolution : 24 bits
Colorimetry : 4:2:0
Scan type : Progressive
Bits/(Pixel*Frame) : 0.348
Stream size : 38.5 MiB (91%)
Title : Video
Writing library : DivX 1670
Audio
Format : MPEG Audio
Format version : Version 1
Format profile : Layer 3
Codec ID : 55
Codec ID/Hint : MP3
Duration : 3mn 14s
Bit rate mode : Constant
Bit rate : 160 Kbps
Channel(s) : 2 channels
Sampling rate : 44.1 KHz
Resolution : 16 bits
Stream size : 3.70 MiB (9%)
Alignment : Split accross interleaves
Interleave, duration : 40 ms (1.00 video frame)
Interleave, preload duration : 500 ms
Title : Audio
Format : AVI
Format/Info : Audio Video Interleave
File size : 80.0 MiB
Duration : 6mn 7s
Overall bit rate : 1 827 Kbps
Writing application : VirtualDubMod 1.5.4.1 (build 2178/release)
Writing library : VirtualDubMod build 2178/release
Video
Format : MPEG-4 Visual
Format settings, BVOP : Yes
Format settings, QPel : No
Format settings, GMC : No warppoints
Format settings, Matrix : Default
Muxing mode : Packed bitstream
Codec ID : DX50
Codec ID/Hint : DivX 5
Duration : 6mn 7s
Bit rate : 1 627 Kbps
Width : 608 pixels
Height : 272 pixels
Display aspect ratio : 2.25
Frame rate : 25.000 fps
Resolution : 24 bits
Colorimetry : 4:2:0
Scan type : Progressive
Bits/(Pixel*Frame) : 0.394
Stream size : 71.3 MiB (89%)
Writing library : DivX 6.4.0 (UTC 2006-10-03)
Audio
Format : MPEG Audio
Format version : Version 1
Format profile : Layer 3
Codec ID : 55
Codec ID/Hint : MP3
Duration : 6mn 7s
Bit rate mode : Constant
Bit rate : 192 Kbps
Minimum bit rate : 192 Kbps
Channel(s) : 2 channels
Sampling rate : 48.0 KHz
Resolution : 16 bits
Stream size : 8.41 MiB (11%)
Alignment : Aligned on interleaves
Interleave, duration : 80 ms (2.00 video frames)
Interleave, preload duration : 504 ms
Writing library : LAME3.97b
Encoding settings : CBR
Format : DivX
Format/Info : Hack of AVI
File size : 95.1 MiB
Duration : 7mn 57s
Overall bit rate : 1 670 Kbps
Video
Format : MPEG-4 Visual
Format settings, BVOP : Yes
Format settings, QPel : No
Format settings, GMC : No warppoints
Format settings, Matrix : Default
Muxing mode : Packed bitstream
Codec ID : DX50
Codec ID/Hint : DivX 5
Duration : 7mn 57s
Bit rate : 1 501 Kbps
Width : 656 pixels
Height : 368 pixels
Display aspect ratio : 16/9
Frame rate : 25.000 fps
Resolution : 24 bits
Colorimetry : 4:2:0
Scan type : Progressive
Bits/(Pixel*Frame) : 0.249
Stream size : 85.4 MiB (90%)
Title : Main
Writing library : DivX 6.5.1 (UTC 2007-03)
Audio
Format : MPEG Audio
Format version : Version 1
Format profile : Layer 3
Codec ID : 55
Codec ID/Hint : MP3
Duration : 7mn 57s
Bit rate mode : Constant
Bit rate : 160 Kbps
Channel(s) : 2 channels
Sampling rate : 48.0 KHz
Resolution : 16 bits
Video delay : 40ms
Stream size : 9.11 MiB (10%)
Alignment : Split accross interleaves
Interleave, duration : 40 ms (1.00 video frame)
Interleave, preload duration : 500 ms
Title : Audio
Format : AVI
Format/Info : Audio Video Interleave
File size : 110 MiB
Duration : 9mn 1s
Overall bit rate : 1 705 Kbps
Writing application : VirtualDubMod 1.5.4.1 (build 2178/release)
Writing library : VirtualDubMod build 2178/release
Video
Format : MPEG-4 Visual
Format settings, BVOP : Yes
Format settings, QPel : No
Format settings, GMC : No warppoints
Format settings, Matrix : Default
Muxing mode : Packed bitstream
Codec ID : DX50
Codec ID/Hint : DivX 5
Duration : 9mn 1s
Bit rate : 1 506 Kbps
Width : 624 pixels
Height : 272 pixels
Display aspect ratio : 2.25
Frame rate : 25.000 fps
Resolution : 24 bits
Colorimetry : 4:2:0
Scan type : Progressive
Bits/(Pixel*Frame) : 0.355
Stream size : 97.1 MiB (88%)
Writing library : DivX 6.4.0 (UTC 2006-10-03)
Audio
Format : MPEG Audio
Format version : Version 1
Format profile : Layer 3
Codec ID : 55
Codec ID/Hint : MP3
Duration : 9mn 1s
Bit rate mode : Constant
Bit rate : 192 Kbps
Minimum bit rate : 192 Kbps
Channel(s) : 2 channels
Sampling rate : 48.0 KHz
Resolution : 16 bits
Stream size : 12.4 MiB (11%)
Alignment : Aligned on interleaves
Interleave, duration : 80 ms (2.00 video frames)
Interleave, preload duration : 504 ms
Writing library : LAME3.97b
Encoding settings : CBR
Format : AVI
Format/Info : Audio Video Interleave
File size : 55.0 MiB
Duration : 3mn 57s
Overall bit rate : 1 941 Kbps
Writing application : VirtualDubMod 1.5.4.1 (build 2178/release)
Writing library : VirtualDubMod build 2178/release
Video
Format : MPEG-4 Visual
Format settings, BVOP : Yes
Format settings, QPel : No
Format settings, GMC : No warppoints
Format settings, Matrix : Default
Muxing mode : Packed bitstream
Codec ID : DX50
Codec ID/Hint : DivX 5
Duration : 3mn 57s
Bit rate : 1 741 Kbps
Width : 624 pixels
Height : 272 pixels
Display aspect ratio : 2.25
Frame rate : 25.000 fps
Resolution : 24 bits
Colorimetry : 4:2:0
Scan type : Progressive
Bits/(Pixel*Frame) : 0.410
Stream size : 49.3 MiB (90%)
Writing library : DivX 6.4.0 (UTC 2006-10-03)
Audio
Format : MPEG Audio
Format version : Version 1
Format profile : Layer 3
Codec ID : 55
Codec ID/Hint : MP3
Duration : 3mn 57s
Bit rate mode : Constant
Bit rate : 192 Kbps
Minimum bit rate : 192 Kbps
Channel(s) : 2 channels
Sampling rate : 48.0 KHz
Resolution : 16 bits
Stream size : 5.44 MiB (10%)
Alignment : Aligned on interleaves
Interleave, duration : 80 ms (2.00 video frames)
Interleave, preload duration : 504 ms
Writing library : LAME3.97b
Encoding settings : CBR
Format : AVI
Format/Info : Audio Video Interleave
File size : 31.5 MiB
Duration : 2mn 51s
Overall bit rate : 1 540 Kbps
Writing application : Nandub v1.0rc2
Writing library : Nandub build 1853/release
Video
Format : MPEG-4 Visual
Format profile : Streaming Video@L1
Format settings, BVOP : Yes
Format settings, QPel : No
Format settings, GMC : No warppoints
Format settings, Matrix : Default
Codec ID : XVID
Codec ID/Hint : XviD
Duration : 2mn 51s
Bit rate : 1 312 Kbps
Width : 512 pixels
Height : 384 pixels
Display aspect ratio : 4/3
Frame rate : 25.000 fps
Resolution : 24 bits
Colorimetry : 4:2:0
Scan type : Progressive
Bits/(Pixel*Frame) : 0.267
Stream size : 26.8 MiB (85%)
Writing library : XviD 1.1.0 (UTC 2005-11-22)
Audio
Format : MPEG Audio
Format version : Version 1
Format profile : Layer 3
Codec ID : 55
Codec ID/Hint : MP3
Duration : 2mn 51s
Bit rate mode : Variable
Bit rate : 214 Kbps
Channel(s) : 2 channels
Sampling rate : 44.1 KHz
Resolution : 16 bits
Stream size : 4.38 MiB (14%)
Alignment : Aligned on interleaves
Interleave, duration : 26 ms (0.65 video frame)
Interleave, preload duration : 542 ms
Writing library : LAME3.90.
Encoding settings : VBR (rh)
Format : AVI
Format/Info : Audio Video Interleave
File size : 55.0 MiB
Duration : 3mn 23s
Overall bit rate : 2 265 Kbps
Writing application : VirtualDubMod 1.5.4.1 (build 2178/release)
Writing library : VirtualDubMod build 2178/release
Video
Format : MPEG-4 Visual
Format settings, BVOP : Yes
Format settings, QPel : No
Format settings, GMC : No warppoints
Format settings, Matrix : Default
Muxing mode : Packed bitstream
Codec ID : DX50
Codec ID/Hint : DivX 5
Duration : 3mn 23s
Bit rate : 2 065 Kbps
Width : 624 pixels
Height : 352 pixels
Display aspect ratio : 16/9
Frame rate : 25.000 fps
Resolution : 24 bits
Colorimetry : 4:2:0
Scan type : Progressive
Bits/(Pixel*Frame) : 0.376
Stream size : 50.2 MiB (91%)
Writing library : DivX 6.4.0 (UTC 2006-10-03)
Audio
Format : MPEG Audio
Format version : Version 1
Format profile : Layer 3
Codec ID : 55
Codec ID/Hint : MP3
Duration : 3mn 23s
Bit rate mode : Constant
Bit rate : 192 Kbps
Minimum bit rate : 192 Kbps
Channel(s) : 2 channels
Sampling rate : 48.0 KHz
Resolution : 16 bits
Stream size : 4.67 MiB (8%)
Alignment : Aligned on interleaves
Interleave, duration : 80 ms (2.00 video frames)
Interleave, preload duration : 504 ms
Writing library : LAME3.97b
Encoding settings : CBR
Format : MPEG-PS
File size : 46.8 MiB
Duration : 4mn 41s
Overall bit rate : 1 396 Kbps
Writing library : encoded by TMPGEnc (ver. 2.55.38.142)
Video #224
ID : 224 (0xE0)
Format : MPEG Video
Format version : Version 1
Format settings, Matrix : Default
Duration : 4mn 41s
Bit rate mode : Constant
Bit rate : 1 075 Kbps
Nominal bit rate : 1 150 Kbps
Width : 352 pixels
Height : 240 pixels
Display aspect ratio : 4/3
Frame rate : 29.970 fps
Scan type : Progressive
Bits/(Pixel*Frame) : 0.424
Writing library : TMPGEnc 2.55.38.142
Audio #192
ID : 192 (0xC0)
Format : MPEG Audio
Format version : Version 1
Format profile : Layer 2
Duration : 4mn 41s
Bit rate mode : Constant
Bit rate : 224 Kbps
Channel(s) : 2 channels
Sampling rate : 44.1 KHz
Resolution : 16 bits
Format : MPEG-4
Format profile : Base Media / Version 2
Codec ID : mp42
File size : 15.9 MiB
Duration : 3mn 32s
Overall bit rate : 628 Kbps
Encoded date : UTC 2007-08-26 05:30:25
Tagged date : UTC 2007-08-26 05:30:25
Video #2
Format : AVC
Format/Info : Advanced Video Codec
Format profile : <a href="mailto:Baseline@L2.1" class="postLink">Baseline@L2.1</a>
Format settings, CABAC : No
Format settings, ReFrames : 1 frame
Codec ID : avc1
Codec ID/Info : Advanced Video Coding
Duration : 3mn 32s
Bit rate mode : Variable
Bit rate : 500 Kbps
Maximum bit rate : 1 347 Kbps
Width : 480 pixels
Height : 360 pixels
Display aspect ratio : 4/3
Frame rate mode : Constant
Frame rate : 29.970 fps
Resolution : 24 bits
Colorimetry : 4:2:0
Scan type : Progressive
Bits/(Pixel*Frame) : 0.097
Stream size : 12.7 MiB (80%)
Title : (C) 2007 Google Inc. v06.24.2007.
Encoded date : UTC 2007-08-26 05:30:25
Tagged date : UTC 2007-08-26 05:30:25
Audio #1
Format : AAC
Format/Info : Advanced Audio Codec
Format version : Version 4
Format profile : LC
Format settings, SBR : No
Codec ID : 40
Duration : 3mn 32s
Bit rate mode : Variable
Bit rate : 125 Kbps
Maximum bit rate : 145 Kbps
Channel(s) : 2 channels
Channel positions : L R
Sampling rate : 44.1 KHz
Resolution : 16 bits
Stream size : 3.17 MiB (20%)
Title : (C) 2007 Google Inc. v06.24.2007.
Encoded date : UTC 2007-08-26 05:30:25
Tagged date : UTC 2007-08-26 05:30:25
Format : AVI
Format/Info : Audio Video Interleave
File size : 47.4 MiB
Duration : 3mn 26s
Overall bit rate : 1 921 Kbps
Writing application : Nandub v1.0rc2
Writing library : Nandub build 1853/release
Video
Format : MPEG-4 Visual
Format profile : Streaming Video@L1
Format settings, BVOP : Yes
Format settings, QPel : No
Format settings, GMC : No warppoints
Format settings, Matrix : Default
Codec ID : XVID
Codec ID/Hint : XviD
Duration : 3mn 26s
Bit rate : 1 719 Kbps
Width : 656 pixels
Height : 368 pixels
Display aspect ratio : 16/9
Frame rate : 25.000 fps
Resolution : 24 bits
Colorimetry : 4:2:0
Scan type : Progressive
Bits/(Pixel*Frame) : 0.285
Stream size : 42.4 MiB (89%)
Writing library : XviD 1.1.2 (UTC 2006-11-01)
Audio
Format : MPEG Audio
Format version : Version 1
Format profile : Layer 3
Codec ID : 55
Codec ID/Hint : MP3
Duration : 3mn 25s
Bit rate mode : Variable
Bit rate : 190 Kbps
Channel(s) : 2 channels
Sampling rate : 44.1 KHz
Resolution : 16 bits
Stream size : 4.66 MiB (10%)
Alignment : Aligned on interleaves
Interleave, duration : 26 ms (0.66 video frame)
Interleave, preload duration : 243 ms
Writing library : LAME3.97
Format : Matroska
File size : 26.6 MiB
Duration : 3mn 18s
Overall bit rate : 1 125 Kbps
Encoded date : UTC 2007-11-15 00:12:36
Writing application : mkvmerge v2.1.0 ('Another Place To Fall') built on Aug 19 2007 13:40:07
Writing library : libebml v0.7.7 + libmatroska v0.8.1
Video #1
Format : AVC
Format/Info : Advanced Video Codec
Format profile : <a href="mailto:Main@L3.0" class="postLink">Main@L3.0</a>
Format settings, CABAC : Yes
Format settings, ReFrames : 4 frames
Muxing mode : Container profile=Unknown@3.0
Codec ID : V_MPEG4/ISO/AVC
Duration : 3mn 18s
Width : 640 pixels
Height : 400 pixels
Display aspect ratio : 1.600
Frame rate : 25.000 fps
Resolution : 24 bits
Colorimetry : 4:2:0
Scan type : Progressive
Writing library : x264 core 56 svn-671
Encoding settings : cabac=1 / ref=3 / deblock=1:0:0 / analyse=0x1:0x111 / me=umh / subme=6 / brdo=0 / mixed_ref=1 / me_range=16 / chroma_me=1 / trellis=0 / 8x8dct=0 / cqm=0 / deadzone=21,11 / chroma_qp_offset=0 / threads=1 / nr=0 / decimate=1 / mbaff=0 / bframes=3 / b_pyramid=0 / b_adapt=1 / b_bias=0 / direct=1 / wpredb=1 / bime=1 / keyint=250 / keyint_min=25 / scenecut=40 / rc=crf / crf=21.0 / rceq='blurCplx^(1-qComp)' / qcomp=0.60 / qpmin=10 / qpmax=51 / qpstep=4 / ip_ratio=1.40 / pb_ratio=1.30
Language : English
Audio #2
Format : MPEG Audio
Format version : Version 1
Format profile : Layer 3
Codec ID : A_MPEG/L3
Codec ID/Hint : MP3
Duration : 3mn 18s
Bit rate mode : Variable
Channel(s) : 2 channels
Sampling rate : 44.1 KHz
Resolution : 16 bits
Writing library : LAME3.97 є
File size : 63.2 MiB
Duration : 4mn 57s
Overall bit rate : 1 782 Kbps
Video
Format : MPEG-4 Visual
Format profile : Simple@L1
Format settings, BVOP : No
Format settings, QPel : No
Format settings, GMC : No warppoints
Format settings, Matrix : Default
Codec ID : XVID
Codec ID/Hint : XviD
Duration : 4mn 57s
Bit rate : 1 634 Kbps
Width : 540 pixels
Height : 280 pixels
Display aspect ratio : 1.929
Frame rate : 25.000 fps
Resolution : 24 bits
Colorimetry : 4:2:0
Scan type : Progressive
Bits/(Pixel*Frame) : 0.432
Stream size : 57.9 MiB (92%)
Writing library : Lavc51.16.0
Audio
Format : MPEG Audio
Format version : Version 1
Format profile : Layer 3
Codec ID : 55
Codec ID/Hint : MP3
Duration : 4mn 57s
Bit rate mode : Constant
Bit rate : 128 Kbps
Channel(s) : 2 channels
Sampling rate : 48.0 KHz
Resolution : 16 bits
Video delay : 8ms
Stream size : 4.54 MiB (7%)
Alignment : Aligned on interleaves
Interleave, duration : 24 ms (0.60 video frame)
Format : AVI
Format/Info : Audio Video Interleave
File size : 34.8 MiB
Duration : 5mn 0s
Overall bit rate : 972 Kbps
Writing application : MEncoder 1.0rc1-3.4.2
Writing library : MPlayer
Video
Format : S-Mpeg 4 v2
Codec ID : MP42
Codec ID/Info : Microsoft MPEG-4 V2
Duration : 5mn 0s
Bit rate : 829 Kbps
Width : 480 pixels
Height : 368 pixels
Display aspect ratio : 4/3
Frame rate : 25.000 fps
Resolution : 24 bits
Bits/(Pixel*Frame) : 0.188
Stream size : 29.7 MiB (85%)
Audio
Format : MPEG Audio
Format version : Version 1
Format profile : Layer 3
Codec ID : 55
Codec ID/Hint : MP3
Duration : 5mn 0s
Bit rate mode : Constant
Bit rate : 32.0 Kbps
Channel(s) : 2 channels
Sampling rate : 44.1 KHz
Resolution : 16 bits
Stream size : 4.69 MiB (13%)
Alignment : Aligned on interleaves
Interleave, duration : 26 ms (0.65 video frame)
Interleave, preload duration : 520 ms
Writing library : LAME3.96.1
Format : AVI
Format/Info : Audio Video Interleave
File size : 78.8 MiB
Duration : 9mn 40s
Overall bit rate : 1 140 Kbps
Video
Format : MPEG-4 Visual
Format settings, BVOP : Yes
Format settings, QPel : No
Format settings, GMC : No warppoints
Format settings, Matrix : Default
Codec ID : DX50
Codec ID/Hint : DivX 5
Duration : 4mn 1s
Bit rate : 2 566 Kbps
Width : 640 pixels
Height : 480 pixels
Display aspect ratio : 1.455
Frame rate : 25.000 fps
Resolution : 24 bits
Colorimetry : 4:2:0
Scan type : Progressive
Bits/(Pixel*Frame) : 0.334
Stream size : 74.0 MiB (94%)
Title : AVI-Stream
Writing library : DivX 6.5.1 (UTC 2007-03)
Audio
Format : MPEG Audio
Format version : Version 1
Format profile : Layer 3
Codec ID : 55
Codec ID/Hint : MP3
Duration : 9mn 40s
Bit rate mode : Constant
Bit rate : 160 Kbps
Channel(s) : 2 channels
Sampling rate : 48.0 KHz
Resolution : 16 bits
Stream size : 4.61 MiB (6%)
Alignment : Split accross interleaves
Interleave, duration : 40 ms (1.00 video frame)
Title : Audio Stream
Format : AVI
Format/Info : Audio Video Interleave
File size : 58.8 MiB
Duration : 3mn 0s
Overall bit rate : 2 731 Kbps
Writing library : VirtualDub build 24469/release
Video
Format : AVC
Format/Info : Advanced Video Codec
Format profile : <a href="mailto:High@L5.1" class="postLink">High@L5.1</a>
Format settings, CABAC : Yes
Format settings, ReFrames : 1 frame
Codec ID : X264
Codec ID/Info : XiWave GNU GPL x264 MPEG-4
Duration : 3mn 0s
Bit rate : 2 402 Kbps
Nominal bit rate : 2 428 Kbps
Width : 800 pixels
Height : 600 pixels
Display aspect ratio : 4/3
Frame rate : 25.000 fps
Resolution : 24 bits
Colorimetry : 4:2:0
Scan type : Progressive
Bits/(Pixel*Frame) : 0.200
Stream size : 51.8 MiB (88%)
Writing library : x264 core 1679460940Jul 2 2008
Encoding settings : cabac=1 / ref=1 / deblock=0:0:0 / analyse=0x3:0x113 / me=hex / subme=6 / brdo=0 / mixed_ref=0 / me_range=16 / chroma_me=1 / trellis=1 / 8x8dct=1 / cqm=0 / deadzone=21,11 / chroma_qp_offset=0 / threads=1 / nr=0 / decimate=1 / mbaff=0 / bframes=0 / keyint=250 / keyint_min=1 / scenecut=40 / rc=abr / bitrate=2428 / ratetol=1.0 / rceq='blurCplx^(1-qComp)' / qcomp=0.93 / qpmin=2 / qpmax=31 / qpstep=4 / ip_ratio=1.40 / aq=2:0.30
Audio
Format : MPEG Audio
Format version : Version 1
Format profile : Layer 3
Codec ID : 55
Codec ID/Hint : MP3
Duration : 3mn 0s
Bit rate mode : Constant
Bit rate : 320 Kbps
Channel(s) : 2 channels
Sampling rate : 44.1 KHz
Resolution : 16 bits
Stream size : 6.87 MiB (12%)
Alignment : Split accross interleaves
Interleave, duration : 40 ms (1.00 video frame)
Interleave, preload duration : 500 ms
Writing library : LAME3.97
Format : AVI
Format/Info : Audio Video Interleave
File size : 87.7 MiB
Duration : 7mn 9s
Overall bit rate : 1 714 Kbps
Video
Format : MPEG-4 Visual
Codec ID : DIV3
Codec ID/Hint : DivX 3 Low
Duration : 3mn 34s
Bit rate : 3 321 Kbps
Width : 656 pixels
Height : 352 pixels
Display aspect ratio : 1.864
Frame rate : 25.000 fps
Resolution : 24 bits
Bits/(Pixel*Frame) : 0.575
Stream size : 84.9 MiB (97%)
Audio
Format : MPEG Audio
Format version : Version 2
Format profile : Layer 3
Codec ID : 55
Codec ID/Hint : MP3
Duration : 7mn 9s
Bit rate mode : Constant
Bit rate : 96.0 Kbps
Channel(s) : 2 channels
Sampling rate : 22.05 KHz
Resolution : 16 bits
Stream size : 2.46 MiB (3%)
Alignment : Aligned on interleaves
Interleave, duration : 26 ms (0.65 video frame)
Writing library : LAME3.97 (beta)
Format : AVI
Format/Info : Audio Video Interleave
File size : 22.4 MiB
Duration : 2mn 19s
Overall bit rate : 1 351 Kbps
Writing application : VirtualDubMod 1.5.4.1 (build 2178/release)
Writing library : VirtualDubMod build 2178/release
Video
Format : MPEG-4 Visual
Format profile : Streaming Video@L1
Format settings, BVOP : Yes
Format settings, QPel : No
Format settings, GMC : No warppoints
Format settings, Matrix : Custom
Codec ID : XVID
Codec ID/Hint : XviD
Duration : 2mn 19s
Bit rate : 1 151 Kbps
Width : 576 pixels
Height : 320 pixels
Display aspect ratio : 16/9
Frame rate : 25.000 fps
Resolution : 24 bits
Colorimetry : 4:2:0
Scan type : Progressive
Bits/(Pixel*Frame) : 0.250
Stream size : 19.1 MiB (85%)
Writing library : XviD 1.1.2 (UTC 2006-11-01)
Audio
Format : MPEG Audio
Format version : Version 1
Format profile : Layer 3
Codec ID : 55
Codec ID/Hint : MP3
Duration : 2mn 19s
Bit rate mode : Variable
Bit rate : 186 Kbps
Minimum bit rate : 192 Kbps
Channel(s) : 2 channels
Sampling rate : 48.0 KHz
Resolution : 16 bits
Stream size : 3.09 MiB (14%)
Alignment : Aligned on interleaves
Interleave, duration : 24 ms (0.60 video frame)
Interleave, preload duration : 547 ms
Writing library : LAME3.97
Encoding settings : ABR
Format : AVI
Format/Info : Audio Video Interleave
File size : 68.9 MiB
Duration : 4mn 45s
Overall bit rate : 2 025 Kbps
Writing application : MEncoder 1.0rc1-3.4.2
Writing library : MPlayer
Video
Format : S-Mpeg 4 v2
Codec ID : MP42
Codec ID/Info : Microsoft MPEG-4 V2
Duration : 4mn 45s
Bit rate : 1 854 Kbps
Width : 600 pixels
Height : 338 pixels
Display aspect ratio : 16/9
Frame rate : 25.000 fps
Resolution : 24 bits
Bits/(Pixel*Frame) : 0.366
Stream size : 63.1 MiB (92%)
Audio
Format : MPEG Audio
Format version : Version 1
Format profile : Layer 3
Codec ID : 55
Codec ID/Hint : MP3
Duration : 4mn 45s
Bit rate mode : Constant
Bit rate : 32.0 Kbps
Channel(s) : 2 channels
Sampling rate : 44.1 KHz
Resolution : 16 bits
Stream size : 5.38 MiB (8%)
Alignment : Aligned on interleaves
Interleave, duration : 26 ms (0.65 video frame)
Interleave, preload duration : 1029 ms
Writing library : LAME3.96.1
Format : MPEG-4
Format profile : Base Media / Version 2
Codec ID : mp42
File size : 16.3 MiB
Duration : 4mn 2s
Overall bit rate : 564 Kbps
Encoded date : UTC 2008-12-11 18:52:15
Tagged date : UTC 2008-12-11 18:52:15
Video #2
Format : AVC
Format/Info : Advanced Video Codec
Format profile : <a href="mailto:Baseline@L2.1" class="postLink">Baseline@L2.1</a>
Format settings, CABAC : No
Format settings, ReFrames : 1 frame
Codec ID : avc1
Codec ID/Info : Advanced Video Coding
Duration : 4mn 1s
Bit rate mode : Variable
Bit rate : 437 Kbps
Maximum bit rate : 1 928 Kbps
Width : 480 pixels
Height : 352 pixels
Display aspect ratio : 4/3
Frame rate mode : Constant
Frame rate : 24.996 fps
Resolution : 24 bits
Colorimetry : 4:2:0
Scan type : Progressive
Bits/(Pixel*Frame) : 0.103
Stream size : 12.6 MiB (77%)
Title : (C) 2007 Google Inc. v08.13.2007.
Encoded date : UTC 2008-12-11 18:52:16
Tagged date : UTC 2008-12-11 18:52:16
Audio #1
Format : AAC
Format/Info : Advanced Audio Codec
Format version : Version 4
Format profile : LC
Format settings, SBR : No
Codec ID : 40
Duration : 4mn 2s
Bit rate mode : Variable
Bit rate : 125 Kbps
Maximum bit rate : 150 Kbps
Channel(s) : 2 channels
Channel positions : L R
Sampling rate : 44.1 KHz
Resolution : 16 bits
Stream size : 3.62 MiB (22%)
Title : (C) 2007 Google Inc. v08.13.2007.
Encoded date : UTC 2008-12-11 18:52:15
Tagged date : UTC 2008-12-11 18:52:16
File size : 47.8 MiB
Duration : 3mn 9s
Overall bit rate : 2 114 Kbps
Encoded date : UTC 2009-01-22 14:33:13
Writing application : mkvmerge v2.4.1 ('Use Me') built on Dec 5 2008 18:30:05
Writing library : libebml v0.7.7 + libmatroska v0.8.1
Video #1
Format : AVC
Format/Info : Advanced Video Codec
Format profile : <a href="mailto:Main@L3.0" class="postLink">Main@L3.0</a>
Format settings, CABAC : Yes
Format settings, ReFrames : 5 frames
Muxing mode : Container profile=Unknown@3.0
Codec ID : V_MPEG4/ISO/AVC
Duration : 3mn 9s
Bit rate : 1 837 Kbps
Width : 720 pixels
Height : 352 pixels
Display aspect ratio : 2.045
Frame rate : 25.000 fps
Resolution : 24 bits
Colorimetry : 4:2:0
Scan type : Progressive
Bits/(Pixel*Frame) : 0.290
Writing library : x264 core 66 r1086 39a2796
Encoding settings : cabac=1 / ref=5 / deblock=1:0:0 / analyse=0x1:0x111 / me=umh / subme=9 / psy_rd=1.0:0.0 / mixed_ref=1 / me_range=16 / chroma_me=1 / trellis=2 / 8x8dct=0 / cqm=0 / deadzone=21,11 / chroma_qp_offset=-2 / threads=6 / nr=0 / decimate=1 / mbaff=0 / bframes=5 / b_pyramid=0 / b_adapt=1 / b_bias=0 / direct=1 / wpredb=1 / keyint=250 / keyint_min=25 / scenecut=40(pre) / rc=crf / crf=18.0 / qcomp=0.60 / qpmin=10 / qpmax=51 / qpstep=4 / ip_ratio=1.40 / pb_ratio=1.30 / aq=1:1.00
Language : English
Audio #2
Format : MPEG Audio
Format version : Version 1
Format profile : Layer 3
Codec ID : A_MPEG/L3
Codec ID/Hint : MP3
Duration : 3mn 9s
Bit rate mode : Variable
Bit rate : 184 Kbps
Minimum bit rate : 32.0 Kbps
Channel(s) : 2 channels
Sampling rate : 44.1 KHz
Resolution : 16 bits
Writing library : LAME3.97
Encoding settings : VBR (mtrh)
Format : Matroska
File size : 63.2 MiB
Duration : 3mn 47s
Overall bit rate : 2 336 Kbps
Encoded date : UTC 2009-02-19 02:16:38
Writing application : mkvmerge v2.2.0 ('Turn It On Again') built on Mar 4 2008 12:58:26
Writing library : libebml v0.7.7 + libmatroska v0.8.1
Video #1
Format : AVC
Format/Info : Advanced Video Codec
Format profile : <a href="mailto:High@L5.1" class="postLink">High@L5.1</a>
Format settings, CABAC : Yes
Format settings, ReFrames : 5 frames
Muxing mode : Container profile=Unknown@5.1
Codec ID : V_MPEG4/ISO/AVC
Duration : 3mn 47s
Bit rate : 2 038 Kbps
Nominal bit rate : 2 128 Kbps
Width : 672 pixels
Height : 368 pixels
Display aspect ratio : 16/9
Frame rate : 25.000 fps
Resolution : 24 bits
Colorimetry : 4:2:0
Scan type : Progressive
Bits/(Pixel*Frame) : 0.330
Writing library : x264 core 60 r900 a9af942
Encoding settings : cabac=1 / ref=5 / deblock=1:-2:-1 / analyse=0x3:0x113 / me=umh / subme=6 / brdo=1 / mixed_ref=1 / me_range=16 / chroma_me=1 / trellis=1 / 8x8dct=1 / cqm=0 / deadzone=21,11 / chroma_qp_offset=0 / threads=3 / nr=0 / decimate=1 / mbaff=0 / bframes=16 / b_pyramid=1 / b_adapt=1 / b_bias=0 / direct=3 / wpredb=1 / bime=1 / keyint=250 / keyint_min=25 / scenecut=40(pre) / rc=2pass / bitrate=2128 / ratetol=1.0 / rceq='blurCplx^(1-qComp)' / qcomp=1.00 / qpmin=10 / qpmax=51 / qpstep=4 / cplxblur=20.0 / qblur=0.5 / ip_ratio=1.40 / pb_ratio=1.30 / aq=2:1.00
Audio #2
Format : MPEG Audio
Format version : Version 1
Format profile : Layer 3
Codec ID : A_MPEG/L3
Codec ID/Hint : MP3
Duration : 3mn 47s
Bit rate mode : Variable
Bit rate : 197 Kbps
Minimum bit rate : 32.0 Kbps
Channel(s) : 2 channels
Sampling rate : 48.0 KHz
Resolution : 16 bits
Title : Swedish
Writing library : LAME3.97b
Encoding settings : VBR (mtrh)
Language : Swedish
Format : MPEG-4
Format profile : Base Media / Version 2
Codec ID : mp42
File size : 54.9 MiB
Duration : 3mn 38s
Overall bit rate : 2 109 Kbps
Encoded date : UTC 2009-04-23 13:38:09
Tagged date : UTC 2009-04-23 13:38:09
Video #2
Format : AVC
Format/Info : Advanced Video Codec
Format profile : <a href="mailto:High@L3.1" class="postLink">High@L3.1</a>
Format settings, CABAC : Yes
Format settings, ReFrames : 3 frames
Codec ID : avc1
Codec ID/Info : Advanced Video Coding
Duration : 3mn 37s
Bit rate mode : Variable
Bit rate : 1 996 Kbps
Maximum bit rate : 3 729 Kbps
Width : 1 280 pixels
Height : 720 pixels
Display aspect ratio : 16/9
Frame rate mode : Constant
Frame rate : 25.000 fps
Resolution : 24 bits
Colorimetry : 4:2:0
Scan type : Progressive
Bits/(Pixel*Frame) : 0.087
Stream size : 51.9 MiB (94%)
Title : (C) 2007 Google Inc. v08.13.2007.
Encoded date : UTC 2009-04-23 13:38:10
Tagged date : UTC 2009-04-23 13:38:12
Audio #1
Format : AAC
Format/Info : Advanced Audio Codec
Format version : Version 4
Format profile : LC
Format settings, SBR : No
Codec ID : 40
Duration : 3mn 38s
Bit rate mode : Variable
Bit rate : 114 Kbps
Maximum bit rate : 148 Kbps
Channel(s) : 2 channels
Channel positions : L R
Sampling rate : 44.1 KHz
Resolution : 16 bits
Stream size : 2.97 MiB (5%)
Title : (C) 2007 Google Inc. v08.13.2007.
Encoded date : UTC 2009-04-23 13:38:09
Tagged date : UTC 2009-04-23 13:38:12
Format : AVI
Format/Info : Audio Video Interleave
File size : 63.1 MiB
Duration : 3mn 16s
Overall bit rate : 2 690 Kbps
Movie name : 2.avi
Director : created.with.SUPER(C).v2009.bld.36
Writing application : SUPER(C)
Video
Format : MPEG-4 Visual
Format profile : Simple@L1
Format settings, BVOP : No
Format settings, QPel : No
Format settings, GMC : No warppoints
Format settings, Matrix : Default
Codec ID : DX50
Codec ID/Hint : DivX 5
Duration : 3mn 16s
Bit rate : 2 455 Kbps
Width : 1 024 pixels
Height : 576 pixels
Display aspect ratio : 16/9
Frame rate : 25.000 fps
Resolution : 24 bits
Colorimetry : 4:2:0
Scan type : Progressive
Bits/(Pixel*Frame) : 0.166
Stream size : 57.6 MiB (91%)
Writing library : SUPER(C)
Audio
Format : MPEG Audio
Format version : Version 1
Format profile : Layer 3
Codec ID : 55
Codec ID/Hint : MP3
Duration : 3mn 16s
Bit rate mode : Constant
Bit rate : 224 Kbps
Channel(s) : 2 channels
Sampling rate : 44.1 KHz
Resolution : 16 bits
Stream size : 5.26 MiB (8%)
Alignment : Aligned on interleaves
Interleave, duration : 26 ms (0.65 video frame)
Format : Matroska
File size : 77.0 MiB
Duration : 4mn 32s
Overall bit rate : 2 374 Kbps
Encoded date : UTC 2009-07-22 19:57:08
Writing application : mkvmerge v2.4.1 ('Use Me') built on Dec 5 2008 15:43:32
Writing library : libebml v0.7.7 + libmatroska v0.8.1
Video #1
Format : AVC
Format/Info : Advanced Video Codec
Format profile : <a href="mailto:Main@L3.0" class="postLink">Main@L3.0</a>
Format settings, CABAC : Yes
Format settings, ReFrames : 5 frames
Muxing mode : Container profile=Unknown@3.0
Codec ID : V_MPEG4/ISO/AVC
Duration : 4mn 32s
Bit rate : 2 079 Kbps
Width : 704 pixels
Height : 384 pixels
Display aspect ratio : 16/9
Frame rate : 25.000 fps
Resolution : 24 bits
Colorimetry : 4:2:0
Scan type : Progressive
Bits/(Pixel*Frame) : 0.308
Writing library : x264 core 68 r1183M f21daff
Encoding settings : cabac=1 / ref=5 / deblock=1:0:0 / analyse=0x1:0x111 / me=tesa / subme=9 / psy_rd=1.0:1.0 / mixed_ref=1 / me_range=16 / chroma_me=1 / trellis=2 / 8x8dct=0 / cqm=0 / deadzone=21,11 / chroma_qp_offset=-4 / threads=6 / nr=0 / decimate=1 / mbaff=0 / bframes=3 / b_pyramid=0 / b_adapt=1 / b_bias=0 / direct=1 / wpredb=0 / keyint=250 / keyint_min=25 / scenecut=40 / rc=crf / crf=20.0 / qcomp=0.60 / qpmin=10 / qpmax=51 / qpstep=4 / ip_ratio=1.40 / pb_ratio=1.30 / aq=1:1.00
Language : English
Audio #2
Format : MPEG Audio
Format version : Version 1
Format profile : Layer 2
Codec ID : A_MPEG/L2
Codec ID/Hint : MP2
Duration : 4mn 32s
Bit rate mode : Constant
Bit rate : 192 Kbps
Channel(s) : 2 channels
Sampling rate : 48.0 KHz
Resolution : 16 bits
Language : English
Format : AVI
Format/Info : Audio Video Interleave
File size : 52.0 MiB
Duration : 9mn 24s
Overall bit rate : 773 Kbps
Writing application : Lavf52.0.0
Video
Format : MPEG-4 Visual
Format settings, BVOP : Yes
Format settings, QPel : No
Format settings, GMC : No warppoints
Format settings, Matrix : Default
Codec ID : DX50
Codec ID/Hint : DivX 5
Duration : 9mn 24s
Bit rate : 633 Kbps
Width : 352 pixels
Height : 288 pixels
Display aspect ratio : 1.222
Frame rate : 25.000 fps
Resolution : 24 bits
Colorimetry : 4:2:0
Scan type : Progressive
Bits/(Pixel*Frame) : 0.250
Stream size : 42.6 MiB (82%)
Writing library : DivX 6.8.0 (UTC 2007-12-04)
Audio
Format : MPEG Audio
Format version : Version 1
Format profile : Layer 3
Codec ID : 55
Codec ID/Hint : MP3
Duration : 9mn 24s
Bit rate mode : Constant
Bit rate : 128 Kbps
Channel(s) : 2 channels
Sampling rate : 44.1 KHz
Resolution : 16 bits
Stream size : 8.61 MiB (17%)
Alignment : Aligned on interleaves
Interleave, duration : 26 ms (0.65 video frame)
Format : Flash Video
File size : 24.0 MiB
Duration : 3mn 44s
Overall bit rate : 898 Kbps
totalduration : 223.680
totaldatarate : 898.355
bytelength : 25178330.000
canseekontime : Yes
sourcedata : B4A7D6441
Video
Format : AVC
Format/Info : Advanced Video Codec
Format profile : <a href="mailto:Main@L3.0" class="postLink">Main@L3.0</a>
Format settings, CABAC : Yes
Format settings, ReFrames : 3 frames
Muxing mode : Container profile=Unknown@3.0
Duration : 3mn 44s
Bit rate : 791 Kbps
Width : 638 pixels
Height : 360 pixels
Display aspect ratio : 16/9
Frame rate : 25.000 fps
Resolution : 24 bits
Colorimetry : 4:2:0
Scan type : Progressive
Bits/(Pixel*Frame) : 0.138
Audio
Format : AAC
Format/Info : Advanced Audio Codec
Format version : Version 4
Format profile : LC
Format settings, SBR : No
Duration : 3mn 44s
Bit rate : 101 Kbps
Channel(s) : 2 channels
Channel positions : L R
Sampling rate : 44.1 KHz
Resolution : 16 bits
Format : MPEG-4
Format profile : Base Media / Version 2
Codec ID : mp42
File size : 33.0 MiB
Duration : 8mn 3s
Overall bit rate : 573 Kbps
Encoded date : UTC 2009-08-12 08:38:18
Tagged date : UTC 2009-08-12 08:38:18
Video #2
Format : AVC
Format/Info : Advanced Video Codec
Format profile : <a href="mailto:Baseline@L2.1" class="postLink">Baseline@L2.1</a>
Format settings, CABAC : No
Format settings, ReFrames : 1 frame
Codec ID : avc1
Codec ID/Info : Advanced Video Coding
Duration : 8mn 2s
Bit rate mode : Variable
Bit rate : 457 Kbps
Maximum bit rate : 926 Kbps
Width : 480 pixels
Height : 270 pixels
Display aspect ratio : 16/9
Frame rate mode : Constant
Frame rate : 24.998 fps
Resolution : 24 bits
Colorimetry : 4:2:0
Scan type : Progressive
Bits/(Pixel*Frame) : 0.141
Stream size : 26.3 MiB (80%)
Title : (C) 2007 Google Inc. v08.13.2007.
Encoded date : UTC 2009-08-12 08:38:18
Tagged date : UTC 2009-08-12 08:38:19
Audio #1
Format : AAC
Format/Info : Advanced Audio Codec
Format version : Version 4
Format profile : LC
Format settings, SBR : No
Codec ID : 40
Duration : 8mn 3s
Bit rate mode : Variable
Bit rate : 114 Kbps
Maximum bit rate : 156 Kbps
Channel(s) : 2 channels
Channel positions : L R
Sampling rate : 44.1 KHz
Resolution : 16 bits
Stream size : 6.57 MiB (20%)
Title : (C) 2007 Google Inc. v08.13.2007.
Encoded date : UTC 2009-08-12 08:38:18
Tagged date : UTC 2009-08-12 08:38:19
Format : MPEG-4
Format profile : Base Media / Version 2
Codec ID : mp42
File size : 68.3 MiB
Duration : 4mn 32s
Overall bit rate : 2 106 Kbps
Encoded date : UTC 2009-11-22 15:53:48
Tagged date : UTC 2009-11-22 15:53:48
gsst : 0
gstd : 272578
gssd : BCE844908
Video #2
Format : AVC
Format/Info : Advanced Video Codec
Format profile : <a href="mailto:High@L3.1" class="postLink">High@L3.1</a>
Format settings, CABAC : Yes
Format settings, ReFrames : 3 frames
Codec ID : avc1
Codec ID/Info : Advanced Video Coding
Duration : 4mn 32s
Bit rate mode : Variable
Bit rate : 1 981 Kbps
Maximum bit rate : 4 043 Kbps
Width : 1 280 pixels
Height : 720 pixels
Display aspect ratio : 16/9
Frame rate mode : Constant
Frame rate : 29.970 fps
Resolution : 24 bits
Colorimetry : 4:2:0
Scan type : Progressive
Bits/(Pixel*Frame) : 0.072
Stream size : 64.3 MiB (94%)
Title : (C) 2007 Google Inc. v08.13.2007.
Encoded date : UTC 2009-11-22 15:53:48
Tagged date : UTC 2009-11-22 15:53:50
Audio #1
Format : AAC
Format/Info : Advanced Audio Codec
Format version : Version 4
Format profile : LC
Format settings, SBR : No
Codec ID : 40
Duration : 4mn 32s
Bit rate mode : Variable
Bit rate : 122 Kbps
Maximum bit rate : 162 Kbps
Channel(s) : 2 channels
Channel positions : L R
Sampling rate : 44.1 KHz
Resolution : 16 bits
Stream size : 3.95 MiB (6%)
Title : (C) 2007 Google Inc. v08.13.2007.
Encoded date : UTC 2009-11-22 15:53:48
Tagged date : UTC 2009-11-22 15:53:50
Format : MPEG-4
Format profile : Base Media / Version 2
Codec ID : mp42
File size : 47.0 MiB
Duration : 9mn 55s
Overall bit rate : 662 Kbps
Encoded date : UTC 2009-11-25 11:24:53
Tagged date : UTC 2009-11-25 11:24:53
gsst : 0
gstd : 596101
gssd : B4A7D63C8HH
Video #2
Format : AVC
Format/Info : Advanced Video Codec
Format profile : <a href="mailto:Baseline@L2.1" class="postLink">Baseline@L2.1</a>
Format settings, CABAC : No
Format settings, ReFrames : 1 frame
Codec ID : avc1
Codec ID/Info : Advanced Video Coding
Duration : 9mn 55s
Bit rate mode : Variable
Bit rate : 540 Kbps
Maximum bit rate : 1 425 Kbps
Width : 480 pixels
Height : 320 pixels
Display aspect ratio : 1.500
Frame rate mode : Constant
Frame rate : 25.000 fps
Resolution : 24 bits
Colorimetry : 4:2:0
Scan type : Progressive
Bits/(Pixel*Frame) : 0.141
Stream size : 38.3 MiB (81%)
Title : (C) 2007 Google Inc. v08.13.2007.
Encoded date : UTC 2009-11-25 11:24:53
Tagged date : UTC 2009-11-25 11:24:54
Audio #1
Format : AAC
Format/Info : Advanced Audio Codec
Format version : Version 4
Format profile : LC
Format settings, SBR : No
Codec ID : 40
Duration : 9mn 55s
Bit rate mode : Variable
Bit rate : 120 Kbps
Maximum bit rate : 154 Kbps
Channel(s) : 2 channels
Channel positions : L R
Sampling rate : 44.1 KHz
Resolution : 16 bits
Stream size : 8.54 MiB (18%)
Title : (C) 2007 Google Inc. v08.13.2007.
Encoded date : UTC 2009-11-25 11:24:53
Tagged date : UTC 2009-11-25 11:24:54
Format : MPEG-4
Format profile : Base Media / Version 2
Codec ID : mp42
File size : 136 MiB
Duration : 5mn 41s
Overall bit rate : 3 335 Kbps
Encoded date : UTC 2009-09-03 13:24:44
Tagged date : UTC 2009-09-03 13:31:48
Video #1
Format : MPEG-4 Visual
Format profile : Simple Streaming Video@L4
Format settings, BVOP : No
Format settings, QPel : No
Format settings, GMC : No warppoints
Format settings, Matrix : Default
Codec ID : 20
Duration : 5mn 41s
Bit rate mode : Variable
Bit rate : 3 205 Kbps
Maximum bit rate : 6 016 Kbps
Width : 680 pixels
Height : 512 pixels
Display aspect ratio : 4/3
Frame rate mode : Constant
Frame rate : 25.000 fps
Resolution : 24 bits
Colorimetry : 4:2:0
Scan type : Progressive
Bits/(Pixel*Frame) : 0.368
Stream size : 131 MiB (96%)
Encoded date : UTC 2009-09-03 13:24:44
Tagged date : UTC 2009-09-03 13:31:47
Audio #2
Format : AAC
Format/Info : Advanced Audio Codec
Format version : Version 4
Format profile : LC
Format settings, SBR : No
Codec ID : 40
Duration : 5mn 41s
Bit rate mode : Variable
Bit rate : 128 Kbps
Maximum bit rate : 156 Kbps
Channel(s) : 2 channels
Channel positions : L R
Sampling rate : 44.1 KHz
Resolution : 16 bits
Stream size : 5.21 MiB (4%)
Encoded date : UTC 2009-09-03 13:24:44
Tagged date : UTC 2009-09-03 13:31:47
Format : MPEG-4
Format profile : Base Media / Version 2
Codec ID : mp42
File size : 147 MiB
Duration : 7mn 29s
Overall bit rate : 2 740 Kbps
Encoded date : UTC 2009-09-03 13:38:16
Tagged date : UTC 2009-09-03 13:47:18
Video #1
Format : MPEG-4 Visual
Format profile : Simple Streaming Video@L4
Format settings, BVOP : No
Format settings, QPel : No
Format settings, GMC : No warppoints
Format settings, Matrix : Default
Codec ID : 20
Duration : 7mn 29s
Bit rate mode : Variable
Bit rate : 2 610 Kbps
Maximum bit rate : 3 781 Kbps
Width : 680 pixels
Height : 512 pixels
Display aspect ratio : 4/3
Frame rate mode : Constant
Frame rate : 25.000 fps
Resolution : 24 bits
Colorimetry : 4:2:0
Scan type : Progressive
Bits/(Pixel*Frame) : 0.300
Stream size : 140 MiB (95%)
Encoded date : UTC 2009-09-03 13:38:16
Tagged date : UTC 2009-09-03 13:47:17
Audio #2
Format : AAC
Format/Info : Advanced Audio Codec
Format version : Version 4
Format profile : LC
Format settings, SBR : No
Codec ID : 40
Duration : 7mn 29s
Bit rate mode : Variable
Bit rate : 128 Kbps
Maximum bit rate : 158 Kbps
Channel(s) : 2 channels
Channel positions : L R
Sampling rate : 44.1 KHz
Resolution : 16 bits
Stream size : 6.86 MiB (5%)
Encoded date : UTC 2009-09-03 13:38:17
Tagged date : UTC 2009-09-03 13:47:17
Format : MPEG-4
Format profile : Base Media / Version 2
Codec ID : mp42
File size : 48.8 MiB
Duration : 3mn 15s
Overall bit rate : 2 095 Kbps
Encoded date : UTC 2009-11-05 17:17:14
Tagged date : UTC 2009-11-05 17:17:14
gsst : 0
gstd : 195720
gssd : BD592AB06
Video #2
Format : AVC
Format/Info : Advanced Video Codec
Format profile : <a href="mailto:High@L3.1" class="postLink">High@L3.1</a>
Format settings, CABAC : Yes
Format settings, ReFrames : 3 frames
Codec ID : avc1
Codec ID/Info : Advanced Video Coding
Duration : 3mn 15s
Bit rate mode : Variable
Bit rate : 1 971 Kbps
Maximum bit rate : 5 455 Kbps
Width : 1 280 pixels
Height : 720 pixels
Display aspect ratio : 16/9
Frame rate mode : Constant
Frame rate : 25.000 fps
Resolution : 24 bits
Colorimetry : 4:2:0
Scan type : Progressive
Bits/(Pixel*Frame) : 0.086
Stream size : 45.9 MiB (94%)
Title : (C) 2007 Google Inc. v08.13.2007.
Encoded date : UTC 2009-11-05 17:17:15
Tagged date : UTC 2009-11-05 17:17:15
Audio #1
Format : AAC
Format/Info : Advanced Audio Codec
Format version : Version 4
Format profile : LC
Format settings, SBR : No
Codec ID : 40
Duration : 3mn 15s
Bit rate mode : Variable
Bit rate : 121 Kbps
Maximum bit rate : 206 Kbps
Channel(s) : 2 channels
Channel positions : L R
Sampling rate : 44.1 KHz
Resolution : 16 bits
Stream size : 2.83 MiB (6%)
Title : (C) 2007 Google Inc. v08.13.2007.
Encoded date : UTC 2009-11-05 17:17:14
Tagged date : UTC 2009-11-05 17:17:15
Format : Flash Video
File size : 29.4 MiB
Duration : 3mn 47s
Overall bit rate : 1 084 Kbps
totalduration : 227.200
totaldatarate : 1084.110
bytelength : 30859494.000
canseekontime : Yes
sourcedata : B4A7D0AC7
Video
Format : AVC
Format/Info : Advanced Video Codec
Format profile : <a href="mailto:Main@L3.0" class="postLink">Main@L3.0</a>
Format settings, CABAC : Yes
Format settings, ReFrames : 3 frames
Muxing mode : Container profile=Unknown@3.0
Duration : 3mn 47s
Bit rate : 960 Kbps
Width : 720 pixels
Height : 480 pixels
Display aspect ratio : 1.500
Frame rate : 25.000 fps
Standard : NTSC
Resolution : 24 bits
Colorimetry : 4:2:0
Scan type : Progressive
Bits/(Pixel*Frame) : 0.111
Audio
Format : AAC
Format/Info : Advanced Audio Codec
Format version : Version 4
Format profile : LC
Format settings, SBR : No
Duration : 3mn 47s
Bit rate : 118 Kbps
Channel(s) : 2 channels
Channel positions : L R
Sampling rate : 44.1 KHz
Resolution : 16 bits
Format : AVI
Format/Info : Audio Video Interleave
File size : 42.4 MiB
Duration : 2mn 58s
Overall bit rate : 1 997 Kbps
Writing library : VirtualDub build 30091/release
Video
Format : MPEG-4 Visual
Format profile : Simple@L1
Format settings, BVOP : No
Format settings, QPel : No
Format settings, GMC : No warppoints
Format settings, Matrix : Default
Codec ID : DIVX
Codec ID/Info : Project Mayo
Codec ID/Hint : DivX 4
Duration : 2mn 58s
Bit rate : 1 824 Kbps
Width : 720 pixels
Height : 576 pixels
Display aspect ratio : 5/4
Frame rate : 25.000 fps
Standard : PAL
Resolution : 24 bits
Colorimetry : 4:2:0
Scan type : Progressive
Bits/(Pixel*Frame) : 0.176
Stream size : 38.7 MiB (91%)
Writing library : SUPER(C)
Audio
Format : MPEG Audio
Format version : Version 1
Format profile : Layer 3
Codec ID : 55
Codec ID/Hint : MP3
Duration : 2mn 58s
Bit rate mode : Constant
Bit rate : 160 Kbps
Channel(s) : 2 channels
Sampling rate : 44.1 KHz
Resolution : 16 bits
Stream size : 3.40 MiB (8%)
Alignment : Aligned on interleaves
Interleave, duration : 26 ms (0.65 video frame)
Interleave, preload duration : 992 ms
Format : MPEG-4
Format profile : Base Media / Version 2
Codec ID : mp42
File size : 50.3 MiB
Duration : 3mn 21s
Overall bit rate : 2 093 Kbps
Encoded date : UTC 2009-11-24 13:14:10
Tagged date : UTC 2009-11-24 13:14:10
gsst : 0
gstd : 202385
gssd : B4A7DAC48
Video #2
Format : AVC
Format/Info : Advanced Video Codec
Format profile : <a href="mailto:High@L3.1" class="postLink">High@L3.1</a>
Format settings, CABAC : Yes
Format settings, ReFrames : 3 frames
Codec ID : avc1
Codec ID/Info : Advanced Video Coding
Duration : 3mn 21s
Bit rate mode : Variable
Bit rate : 1 967 Kbps
Maximum bit rate : 3 149 Kbps
Width : 1 280 pixels
Height : 720 pixels
Display aspect ratio : 16/9
Frame rate mode : Constant
Frame rate : 29.970 fps
Resolution : 24 bits
Colorimetry : 4:2:0
Scan type : Progressive
Bits/(Pixel*Frame) : 0.071
Stream size : 47.3 MiB (94%)
Title : (C) 2007 Google Inc. v08.13.2007.
Encoded date : UTC 2009-11-24 13:14:10
Tagged date : UTC 2009-11-24 13:14:12
Audio #1
Format : AAC
Format/Info : Advanced Audio Codec
Format version : Version 4
Format profile : LC
Format settings, SBR : No
Codec ID : 40
Duration : 3mn 21s
Bit rate mode : Variable
Bit rate : 122 Kbps
Maximum bit rate : 163 Kbps
Channel(s) : 2 channels
Channel positions : L R
Sampling rate : 44.1 KHz
Resolution : 16 bits
Stream size : 2.95 MiB (6%)
Title : (C) 2007 Google Inc. v08.13.2007.
Encoded date : UTC 2009-11-24 13:14:10
Tagged date : UTC 2009-11-24 13:14:12
Format : MPEG-4
Format profile : Base Media / Version 2
Codec ID : mp42
File size : 26.4 MiB
Duration : 5mn 36s
Overall bit rate : 657 Kbps
Encoded date : UTC 2009-07-22 10:20:52
Tagged date : UTC 2009-07-22 10:20:52
gsst : 0
gstd : 337106
gssd : B4A7DD2A7HH
Video #2
Format : AVC
Format/Info : Advanced Video Codec
Format profile : <a href="mailto:Baseline@L2.1" class="postLink">Baseline@L2.1</a>
Format settings, CABAC : No
Format settings, ReFrames : 1 frame
Codec ID : avc1
Codec ID/Info : Advanced Video Coding
Duration : 5mn 36s
Bit rate mode : Variable
Bit rate : 540 Kbps
Maximum bit rate : 939 Kbps
Width : 480 pixels
Height : 270 pixels
Display aspect ratio : 16/9
Frame rate mode : Constant
Frame rate : 24.997 fps
Resolution : 24 bits
Colorimetry : 4:2:0
Scan type : Progressive
Bits/(Pixel*Frame) : 0.167
Stream size : 21.7 MiB (82%)
Title : (C) 2007 Google Inc. v08.13.2007.
Encoded date : UTC 2009-07-22 10:20:53
Tagged date : UTC 2009-07-22 10:20:53
Audio #1
Format : AAC
Format/Info : Advanced Audio Codec
Format version : Version 4
Format profile : LC
Format settings, SBR : No
Codec ID : 40
Duration : 5mn 36s
Bit rate mode : Variable
Bit rate : 115 Kbps
Maximum bit rate : 155 Kbps
Channel(s) : 2 channels
Channel positions : L R
Sampling rate : 44.1 KHz
Resolution : 16 bits
Stream size : 4.61 MiB (17%)
Title : (C) 2007 Google Inc. v08.13.2007.
Encoded date : UTC 2009-07-22 10:20:52
Tagged date : UTC 2009-07-22 10:20:53
Format : MPEG-4
Format profile : Base Media / Version 2
Codec ID : mp42
File size : 39.6 MiB
Duration : 9mn 43s
Overall bit rate : 570 Kbps
Encoded date : UTC 2009-12-26 18:16:45
Tagged date : UTC 2009-12-26 18:16:45
gsst : 0
gstd : 583680
gssd : B4A7D6301HH
Video #2
Format : AVC
Format/Info : Advanced Video Codec
Format profile : <a href="mailto:Baseline@L2.1" class="postLink">Baseline@L2.1</a>
Format settings, CABAC : No
Format settings, ReFrames : 1 frame
Codec ID : avc1
Codec ID/Info : Advanced Video Coding
Duration : 9mn 43s
Bit rate mode : Variable
Bit rate : 455 Kbps
Maximum bit rate : 808 Kbps
Width : 480 pixels
Height : 268 pixels
Display aspect ratio : 16/9
Frame rate mode : Constant
Frame rate : 25.000 fps
Resolution : 24 bits
Colorimetry : 4:2:0
Scan type : Progressive
Bits/(Pixel*Frame) : 0.141
Stream size : 31.6 MiB (80%)
Title : (C) 2007 Google Inc. v08.13.2007.
Encoded date : UTC 2009-12-26 18:16:46
Tagged date : UTC 2009-12-26 18:16:47
Audio #1
Format : AAC
Format/Info : Advanced Audio Codec
Format version : Version 4
Format profile : LC
Format settings, SBR : No
Codec ID : 40
Duration : 9mn 43s
Bit rate mode : Variable
Bit rate : 113 Kbps
Maximum bit rate : 142 Kbps
Channel(s) : 2 channels
Channel positions : L R
Sampling rate : 44.1 KHz
Resolution : 16 bits
Stream size : 7.85 MiB (20%)
Title : (C) 2007 Google Inc. v08.13.2007.
Encoded date : UTC 2009-12-26 18:16:45
Tagged date : UTC 2009-12-26 18:16:47
Format : Matroska
File size : 67.1 MiB
Duration : 3mn 35s
Overall bit rate : 2 613 Kbps
Encoded date : UTC 2010-03-02 12:21:36
Writing application : mkvmerge v2.5.2 ('Stranger in your Soul') built on Feb 28 2009 18:58:17
Writing library : libebml v0.7.7 + libmatroska v0.8.1
Video #1
ID : 1
Format : AVC
Format/Info : Advanced Video Codec
Format profile : <a href="mailto:Baseline@L3.0" class="postLink">Baseline@L3.0</a>
Format settings, CABAC : No
Format settings, ReFrames : 1 frame
Muxing mode : Container profile=Unknown@3.0
Codec ID : V_MPEG4/ISO/AVC
Duration : 3mn 35s
Width : 1 280 pixels
Height : 720 pixels
Display aspect ratio : 16:9
Frame rate : 25.000 fps
Resolution : 24 bits
Colorimetry : 4:2:0
Scan type : Progressive
Audio #2
ID : 2
Format : AAC
Format/Info : Advanced Audio Codec
Format version : Version 4
Format profile : Main
Codec ID : A_AAC
Duration : 3mn 35s
Channel(s) : 6 channels
Channel positions : Front: L C R, Rear: L R, LFE
Sampling rate : 44.1 KHz
Resolution : 16 bits
Video delay : 20ms
Format : AVI
Format/Info : Audio Video Interleave
File size : 508 MiB
Duration : 51mn 23s
Overall bit rate : 1 381 Kbps
Writing library : VirtualDub build 24415/release
Video
Format : MPEG-4 Visual
Format profile : Simple@L1
Format settings, BVOP : No
Format settings, QPel : No
Format settings, GMC : No warppoints
Format settings, Matrix : Default
Codec ID : XVID
Codec ID/Hint : XviD
Duration : 51mn 23s
Bit rate : 1 243 Kbps
Width : 540 pixels
Height : 280 pixels
Display aspect ratio : 1.929
Frame rate : 25.000 fps
Resolution : 24 bits
Colorimetry : 4:2:0
Scan type : Progressive
Bits/(Pixel*Frame) : 0.329
Stream size : 457 MiB (90%)
Writing library : Lavc51.16.0
Audio
Format : MPEG Audio
Format version : Version 1
Format profile : Layer 3
Codec ID : 55
Codec ID/Hint : MP3
Duration : 51mn 23s
Bit rate mode : Constant
Bit rate : 128 Kbps
Channel(s) : 2 channels
Sampling rate : 48.0 KHz
Resolution : 16 bits
Stream size : 47.0 MiB (9%)
Alignment : Split accross interleaves
Interleave, duration : 40 ms (1.00 video frame)
Interleave, preload duration : 500 ms
Format : AVI
Format/Info : Audio Video Interleave
File size : 298 MiB
Duration : 21mn 56s
Overall bit rate : 1 902 Kbps
Writing library : VirtualDub build 30009/release
Video
Format : MPEG-4 Visual
Format profile : Streaming Video@L1
Format settings, BVOP : Yes
Format settings, QPel : No
Format settings, GMC : No warppoints
Format settings, Matrix : Default
Muxing mode : Packed bitstream
Codec ID : XVID
Codec ID/Hint : XviD
Duration : 21mn 56s
Bit rate : 1 700 Kbps
Width : 720 pixels
Height : 400 pixels
Display aspect ratio : 16/9
Frame rate : 25.000 fps
Resolution : 24 bits
Colorimetry : 4:2:0
Scan type : Progressive
Bits/(Pixel*Frame) : 0.236
Stream size : 267 MiB (89%)
Writing library : XviD 1.2.0.dev47 (UTC 2006-11-01)
Audio
Format : MPEG Audio
Format version : Version 1
Format profile : Layer 3
Codec ID : 55
Codec ID/Hint : MP3
Duration : 21mn 56s
Bit rate mode : Constant
Bit rate : 192 Kbps
Channel(s) : 2 channels
Sampling rate : 48.0 KHz
Resolution : 16 bits
Stream size : 30.1 MiB (10%)
Alignment : Split accross interleaves
Interleave, duration : 40 ms (1.00 video frame)
Interleave, preload duration : 500 ms
Format : AVI
Format/Info : Audio Video Interleave
File size : 195 MiB
Duration : 18mn 59s
Overall bit rate : 1 438 Kbps
Video
Format : MPEG-4 Visual
Format settings, BVOP : Yes
Format settings, QPel : No
Format settings, GMC : No warppoints
Format settings, Matrix : Default
Codec ID : DX50
Codec ID/Hint : DivX 5
Duration : 18mn 59s
Bit rate : 1 300 Kbps
Width : 720 pixels
Height : 526 pixels
Display aspect ratio : 4/3
Frame rate : 25.000 fps
Resolution : 24 bits
Colorimetry : 4:2:0
Scan type : Progressive
Bits/(Pixel*Frame) : 0.137
Stream size : 177 MiB (90%)
Title : Video
Writing library : DivX 2376
Audio
Format : MPEG Audio
Format version : Version 1
Format profile : Layer 3
Codec ID : 55
Codec ID/Hint : MP3
Duration : 18mn 59s
Bit rate mode : Constant
Bit rate : 128 Kbps
Channel(s) : 2 channels
Sampling rate : 48.0 KHz
Resolution : 16 bits
Stream size : 17.4 MiB (9%)
Alignment : Split accross interleaves
Interleave, duration : 40 ms (1.00 video frame)
Interleave, preload duration : 500 ms
Title : Audio
Writing library : LAME3.92
Moby - Lift Me Up
Год выпуска: 2007
Жанр: Electro

Описание: 06.Moby.-.Lift.Me.Up (The Very Best Of Moby)

Качество: DVD-VOB
Формат: MPEG-PS at 9 290 Кбит/сек
Видео кодек: MPEG2
Аудио кодек: AC-3
Видео: MPEG Video at 7 109 Кбит/сек 720 x 576 (1.333) at 25.000 fps
Аудио: PCM at 1 536 Кбит/сек 2 канала(ов), 48,0 КГц
Продолжительность: 208 Мегабайт for 3мин 8с 0мс

Еще никто не оставлял запись к записи скачать торрент Правила раздач в музыкальных разделах Видео . Будь первым!

!Обратная связь