Скачать порно через торрент Last Waltz: Hakudaku Mamire no Natsu Gasshuku Последний вальс ~Летний лагерь разврата~ UnionPeer.org бесплатно онлайн HD качество

Скачать новое порно 2015, 2014 новинки через торрент UnionPeer.org

Порно торрент бесплатно ЮнионПир.орг

Если у вас наблюдаются проблемы со скриншотами, переходом по ссылками, скачиванием торрентов - проблемы в блокировщике рекламы AdBlock. #хорошегоДня!


Статистика раздачи
Размер:  3.11 GB   |    Зарегистрирован:  4 года 7 месяцев   |    .torrent скачан:  208 раз   |   
Раздают:  1  
   
Загрузка...
 
Автор Сообщение

Galfimbul

avatar Galfimbul


Last Waltz~白濁まみれの夏合宿~ | Last Waltz: Hakudaku Mamire no Natsu Gasshuku | Последний вальс ~Летний лагерь разврата~


Год выпуска: 2010
Страна: Япония
Жанр: blowjob, female student, gangbang, group sex, maids, rape, titsjob
Продолжительность: >2 эп. по 30 мин.
Субтитры: Отсутствуют
Цензура: Присутствует
Режиссёр: Yokoyama Hiromi
Студия: Suzuki Mirano
Описание:
Mochizuki Yuuki and company are cut-off during a trip to an island training camp when civil war erupts. Just as the ship carrying the teachers leave to summon help, it is attacked by unknown persons and sunk.

With nobody to rely on and provisions dwindling, the survivors split into factions and must look to their own survival. In return for the boys' protection, the girls are subject to all manner of disgrace...
Информационные ссылки: AniDB || MAL || World Art || ХентайМаг
Исходник: DVD-5
Видео: MPEG2 | NTSC | 16x9 | 720x480 | 9200 Kbps
Аудио JAP: AC-3 | 48000Hz | 192 Kbps | 2ch
01. Volume 1
02. Volume 2
General
Complete name : H:\VIDEO_TS\VTS_01_1.VOB
Format : MPEG-PS
File size : 1 024 MiB
Duration : 20mn 57s
Overall bit rate mode : Variable
Overall bit rate : 6 830 Kbps
Writing library : encoded by TMPGEnc 4.0 XPress Version. 4.5.2.255

Video
ID : 224 (0xE0)
Format : MPEG Video
Format version : Version 2
Format profile : Main@Main
Format settings, BVOP : Yes
Format settings, Matrix : Custom
Format settings, GOP : M=3, N=16
Duration : 20mn 57s
Bit rate mode : Variable
Bit rate : 6 502 Kbps
Maximum bit rate : 9 200 Kbps
Width : 720 pixels
Height : 480 pixels
Display aspect ratio : 16:9
Frame rate : 29.970 fps
Standard : NTSC
Color space : YUV
Chroma subsampling : 4:2:0
Bit depth : 8 bits
Scan type : Interlaced
Scan order : Top Field First
Compression mode : Lossy
Bits/(Pixel*Frame) : 0.628
Stream size : 975 MiB (95%)
Writing library : TMPGEnc XPress 4.5.2.255
Color primaries : SMPTE 170M
Transfer characteristics : SMPTE 170M
Matrix coefficients : SMPTE 170M

Audio
ID : 189 (0xBD)-128 (0x80)
Format : AC-3
Format/Info : Audio Coding 3
Mode extension : CM (complete main)
Muxing mode : DVD-Video
Duration : 20mn 57s
Bit rate mode : Constant
Bit rate : 192 Kbps
Channel(s) : 2 channels
Channel positions : Front: L R
Sampling rate : 48.0 KHz
Bit depth : 16 bits
Compression mode : Lossy
Stream size : 28.8 MiB (3%)


Исходник: DVD-5
Видео: MPEG2 | NTSC | 16x9 | 720x480 | 7200 Kbps
Аудио JAP: AC-3 | 48000Hz | 192 Kbps | 2ch
General
Complete name : H:\VIDEO_TS\VTS_01_1.VOB
Format : MPEG-PS
File size : 1 024 MiB
Duration : 19mn 1s
Overall bit rate : 7 527 Kbps

Video
ID : 224 (0xE0)
Format : MPEG Video
Format version : Version 2
Format profile : Main@Main
Format settings, BVOP : Yes
Format settings, Matrix : Custom
Duration : 19mn 1s
Bit rate : 7 200 Kbps
Width : 720 pixels
Height : 480 pixels
Display aspect ratio : 16:9
Frame rate : 29.970 fps
Standard : NTSC
Color space : YUV
Chroma subsampling : 4:2:0
Bit depth : 8 bits
Scan type : Interlaced
Scan order : Top Field First
Compression mode : Lossy
Bits/(Pixel*Frame) : 0.695
Stream size : 978 MiB (95%)

Audio
ID : 189 (0xBD)-128 (0x80)
Format : AC-3
Format/Info : Audio Coding 3
Mode extension : CM (complete main)
Muxing mode : DVD-Video
Duration : 19mn 0s
Bit rate mode : Constant
Bit rate : 192 Kbps
Channel(s) : 2 channels
Channel positions : Front: L R
Sampling rate : 48.0 KHz
Bit depth : 16 bits
Compression mode : Lossy
Stream size : 26.1 MiB (3%)


Трекер:  [ 09-Мар-2013 12:56 ]

  

Скачать .torrent

Размер .torrent файла 16 KB


Размер: 3.11 GB
Хэш (hash) релиза: 9a9c54584e57cbfb41867ad36f2154c4b131e890

Еще никто не оставлял запись к записи скачать торрент Last Waltz: Hakudaku Mamire no Natsu Gasshuku Последний вальс ~Летний лагерь разврата~ . Будь первым!

!Обратная связь