Скачать порно через торрент [abc-ero.com] Олеся. Оральное унижение UnionPeer.org бесплатно онлайн HD качество

Скачать новое порно 2015, 2014 новинки через торрент UnionPeer.org

Порно торрент бесплатно ЮнионПир.орг

Если у вас наблюдаются проблемы со скриншотами, переходом по ссылками, скачиванием торрентов - проблемы в блокировщике рекламы AdBlock. #хорошегоДня!


Статистика раздачи
Размер:  564 MB   |    Зарегистрирован:  4 года 7 месяцев   |    .torrent скачан:  1325 раз   |   
Раздают:  1  
   
Загрузка...
 
Автор Сообщение

Galfimbul

avatar Galfimbul


Олеся. Оральное унижение

Год производства: 2012 г.
Подсайт и сайт: abc-ero.com

Жанр: amateur, humilation
Продолжительность: 00:09:25

Описание: Нашу любимую Олесю унижают. Пощечины, плевки в лицо и (о боже!) член во рту. Девушка героически выносит все страдания.

Тип HD видео: 720p
Качество видео: SiteRip
Формат видео: MOV
Видео кодек: QuickTime
Аудио кодек: AAC
General
Complete name : 100_1205.MOV
Format : QuickTime
Format/Info : Original Apple specifications
File size : 564 MiB
Duration : 9mn 25s
Overall bit rate : 8 369 Kbps
Movie name/More : EASTMAN KODAK COMPANY KODAK EASYSHARE M580 DIGITAL CAMERA
Encoded date : UTC 2012-05-24 10:57:13
Tagged date : UTC 2012-05-24 10:57:13
Origin : Digital Camera

Video
ID : 1
Format : AVC
Format/Info : Advanced Video Codec
Format profile : Main@L4.2
Format settings, CABAC : Yes
Format settings, ReFrames : 2 frames
Format settings, GOP : M=3, N=8
Codec ID : avc1
Codec ID/Info : Advanced Video Coding
Duration : 9mn 25s
Source duration : 9mn 25s
Bit rate : 8 295 Kbps
Width : 1 280 pixels
Height : 720 pixels
Display aspect ratio : 16:9
Frame rate mode : Constant
Frame rate : 30.000 fps
Color space : YUV
Chroma subsampling : 4:2:0
Bit depth : 8 bits
Scan type : Progressive
Bits/(Pixel*Frame) : 0.300
Stream size : 559 MiB (99%)
Source stream size : 559 MiB (99%)
Language : Japanese
Encoded date : UTC 2012-05-24 10:57:13
Tagged date : UTC 2012-05-24 10:57:13
mdhd_Duration : 565482

Audio
ID : 2
Format : AAC
Format/Info : Advanced Audio Codec
Format profile : LC
Codec ID : 40
Duration : 9mn 25s
Bit rate mode : Constant
Bit rate : 66.2 Kbps
Channel(s) : 1 channel
Channel positions : Front: C
Sampling rate : 48.0 KHz
Compression mode : Lossy
Stream size : 4.42 MiB (1%)
Language : Japanese
Encoded date : UTC 2012-05-24 10:57:13
Tagged date : UTC 2012-05-24 10:57:13
mdhd_Duration : 565482


Трекер:  [ 09-Мар-2013 12:08 ]

  

Скачать .torrent

Размер .torrent файла 11 KB


Размер: 564 MB
Хэш (hash) релиза: 6e2527b49f6d1dbd5f1d81d2213e11e21e1f22c8

Еще никто не оставлял запись к записи скачать торрент [abc-ero.com] Олеся. Оральное унижение . Будь первым!

!Обратная связь