Скачать порно через торрент Scarlet Devil Mansion restraint Sakuya - обязательный красных дьяволов музей UnionPeer.org бесплатно онлайн HD качество

Скачать новое порно 2015, 2014 новинки через торрент UnionPeer.org

Порно торрент бесплатно ЮнионПир.орг

Если у вас наблюдаются проблемы со скриншотами, переходом по ссылками, скачиванием торрентов - проблемы в блокировщике рекламы AdBlock. #хорошегоДня!


Статистика раздачи
Размер:  157 MB   |    Зарегистрирован:  4 года 5 месяцев   |    .torrent скачан:  434 раза   |   
Раздают:  1  
   
Загрузка...
 
Автор Сообщение

Galfimbul

avatar Galfimbul


Scarlet Devil Mansion restraint / コノハナ咲夜-拘束紅魔館 / Sakuya - обязательный красных дьяволов музей

Год производства: 2013 г.
Rese2013/01/31
Жанр: Gangbang Breast Sex Sexual Training Torture
Серии: 1
Продолжительность: 18:17
Цензура: Есть во всех файлах

Язык: Японский
Озвучка: Оригинальная
Субтитры: Встроенные неотключаемые (хардсаб)

Студия: @OZ


Описание: As for a beautiful girl Maid, a vital part is thoroughly destroyed to kill mean boredom of fu ○ ndoru, and be made to die by brutal person Insult
Качество видео: GameRip
Формат видео: WMV
Видео кодек: Windows Media
Аудио кодек: WMA
Видео: 1150Kbps, 852*480 (16:9), 29 Fps, WmV2
Аудио 1: 128Kbs, 44,1KHz, 16 bits, 2 channels, Wma
Video
ID : 2
Format : WMV2
Codec ID : WMV2
Codec ID/Info : Windows Media Video 8
Description of the codec : Windows Media Video V8
Duration : 18mn 17s
Bit rate mode : Constant
Bit rate : 1 150 Kbps
Width : 852 pixels
Height : 480 pixels
Display aspect ratio : 16:9
Frame rate : 29.000 fps
Bit depth : 8 bits
Bits/(Pixel*Frame) : 0.097
Stream size : 150 MiB (96%)
Language : Russian

Audio
ID : 1
Format : WMA
Format version : Version 2
Codec ID : 161
Codec ID/Info : Windows Media Audio
Description of the codec : Windows Media Audio 9.2 - 128 kbps, 44 kHz, stereo (A/V) 1-pass CBR
Duration : 18mn 17s
Bit rate mode : Constant
Bit rate : 128 Kbps
Channel(s) : 2 channels
Sampling rate : 44.1 KHz
Bit depth : 16 bits
Stream size : 16.8 MiB (11%)


Трекер:  [ 09-Мар-2013 12:55 ]

  

Скачать .torrent

Размер .torrent файла 13 KB


Размер: 157 MB
Хэш (hash) релиза: c5cde4d3b6bdaed1ddd3500a27e0216476ccd353

Еще никто не оставлял запись к записи скачать торрент Scarlet Devil Mansion restraint Sakuya - обязательный красных дьяволов музей . Будь первым!

!Обратная связь