Скачать через торрент музыку Маша и Медведь - Дискотека с Машей - 2010, FLAC бесплатно без регистрации torrent

Если у вас наблюдаются проблемы со скриншотами, переходом по ссылками, скачиванием торрентов - проблемы в блокировщике рекламы AdBlock. #хорошегоДня!


Статистика раздачи
Размер:  370 MB   |    Зарегистрирован:  6 лет 9 месяцев   |    .torrent скачан:  128 раз   |   
Раздают:  1  
   
Загрузка...
 
Автор Сообщение

Mos

avatar Mos


Маша и Медведь - Дискотека с Машей

Жанр: Soundtrack
Год выпуска диска: 2010
Страна-производитель диска: Россия
Издатель (лейбл): Мистерия Звука
Номер по каталогу: CD-M+116-2
Аудио кодек: FLAC (*.flac)
Тип рипа: tracks+.cue
Битрейт аудио: lossless
Продолжительность: 53:26
Источник: собственный рип
Наличие сканов в содержимом раздачи: да
Треклист:
01. Василий Богатырёв - Про дружбу (3:20)
02. Алина Кукушкина - Про следы (1:49)
03. Алина Кукушкина - Про варенье (1:34)
04. Василий Богатырёв - Новогодняя песня (3:08)
05. Алина Кукушкина - Коньки (1:45)
06. Василий Богатырёв - Три желания (2:48)
07. Дмитрий Рыбников - День рождения (3:32)
08. Дмитрий Рыбников - Каникулы (2:02)
09. Дмитрий Рыбников - Рыбка из пруда (1:33)
10. Дмитрий Рыбников - Зов неба (2:02)
11. Дмитрий Рыбников - Свет любви (3:13)
12. Минус - фонограмма 1 (3:20)
13. Минус - фонограмма 2 (1:49)
14. Минус - фонограмма 3 (1:34)
15. Минус - фонограмма 4 (3:08)
16. Минус - фонограмма 5 (1:45)
17. Минус - фонограмма 6 (2:48)
18. Минус - фонограмма 7 (3:34)
19. Минус - фонограмма 8 (2:02)
20. Минус - фонограмма 9 (1:33)
21. Минус - фонограмма 10 (2:02)
22. Минус - фонограмма 11 (3:05)
 
Exact Audio Copy V0.99 prebeta 5 from 4. May 2009

EAC extraction logfile from 8. September 2010, 20:15

Дискотека с Машей / Маша и медведь

Used drive : PIONEER DVD-RW DVR-215D Adapter: 2 ID: 0

Read mode : SecureUtilize accurate stream : YesDefeat audio cache : YesMake use of C2 pointers : No

Read offset correction : 48Overread into Lead-In and Lead-Out : NoFill up missing offset samples with silence : YesDelete leading and trailing silent blocks : NoNull samples used in CRC calculations : YesUsed interface : Installed external ASPI interfaceGap handling : Appended to previous track

Used output format : User Defined EncoderSelected bitrate : 768 kBit/sQuality : HighAdd ID3 tag : NoCommand line compressor : C:\Program Files\Exact Audio Copy\FLAC\FLAC.EXEAdditional command line options : -8 -V -T "ARTIST=%a" -T "TITLE=%t" -T "ALBUM=%g" -T "DATE=%y" -T "TRACKNUMBER=%n" -T "GENRE=%m" -T "COMMENT=EAC FLAC -8" %s

TOC of the extracted CD

Track | Start | Length | Start sector | End sector --------------------------------------------------------- 1 | 0:00.00 | 3:19.47 | 0 | 14971 2 | 3:19.47 | 1:48.74 | 14972 | 23145 3 | 5:08.46 | 1:34.09 | 23146 | 30204 4 | 6:42.55 | 3:08.00 | 30205 | 44304 5 | 9:50.55 | 1:44.39 | 44305 | 52143 6 | 11:35.19 | 2:48.32 | 52144 | 64775 7 | 14:23.51 | 3:31.39 | 64776 | 80639 8 | 17:55.15 | 2:02.27 | 80640 | 89816 9 | 19:57.42 | 1:32.48 | 89817 | 96764 10 | 21:30.15 | 2:02.28 | 96765 | 105942 11 | 23:32.43 | 3:13.25 | 105943 | 120442 12 | 26:45.68 | 3:20.03 | 120443 | 135445 13 | 30:05.71 | 1:48.74 | 135446 | 143619 14 | 31:54.70 | 1:34.09 | 143620 | 150678 15 | 33:29.04 | 3:08.37 | 150679 | 164815 16 | 36:37.41 | 1:44.65 | 164816 | 172680 17 | 38:22.31 | 2:48.00 | 172681 | 185280 18 | 41:10.31 | 3:34.37 | 185281 | 201367 19 | 44:44.68 | 2:02.27 | 201368 | 210544 20 | 46:47.20 | 1:32.48 | 210545 | 217492 21 | 48:19.68 | 2:02.27 | 217493 | 226669 22 | 50:22.20 | 3:04.45 | 226670 | 240514

Track 1

Filename D:\torrent\ripped by boccador\01. Дискотека с Машей – Про дружбу.wav

Pre-gap length 0:00:02.00

Peak level 96.2 % Track quality 100.0 % Test CRC E9D37FDE Copy CRC E9D37FDE Track not present in AccurateRip database Copy OK

Track 2

Filename D:\torrent\ripped by boccador\02. Дискотека с Машей – Про следы.wav

Pre-gap length 0:00:02.00

Peak level 96.2 % Track quality 100.0 % Test CRC EF1B5EED Copy CRC EF1B5EED Track not present in AccurateRip database Copy OK

Track 3

Filename D:\torrent\ripped by boccador\03. Дискотека с Машей – Про варенье.wav

Pre-gap length 0:00:02.00

Peak level 100.0 % Track quality 100.0 % Test CRC 3F3AC744 Copy CRC 3F3AC744 Track not present in AccurateRip database Copy OK

Track 4

Filename D:\torrent\ripped by boccador\04. Дискотека с Машей – Новогодняя песня.wav

Pre-gap length 0:00:02.00

Peak level 98.4 % Track quality 100.0 % Test CRC 739F444E Copy CRC 739F444E Track not present in AccurateRip database Copy OK

Track 5

Filename D:\torrent\ripped by boccador\05. Дискотека с Машей – Коньки.wav

Pre-gap length 0:00:02.00

Peak level 97.6 % Track quality 100.0 % Test CRC 538B9099 Copy CRC 538B9099 Track not present in AccurateRip database Copy OK

Track 6

Filename D:\torrent\ripped by boccador\06. Дискотека с Машей – Три желания.wav

Pre-gap length 0:00:02.00

Peak level 96.4 % Track quality 100.0 % Test CRC 21B22B10 Copy CRC 21B22B10 Track not present in AccurateRip database Copy OK

Track 7

Filename D:\torrent\ripped by boccador\07. Дискотека с Машей – День рождения.wav

Pre-gap length 0:00:02.00

Peak level 100.0 % Track quality 99.9 % Test CRC EA65A170 Copy CRC EA65A170 Track not present in AccurateRip database Copy OK

Track 8

Filename D:\torrent\ripped by boccador\08. Дискотека с Машей – Каникулы.wav

Pre-gap length 0:00:02.00

Peak level 100.0 % Track quality 100.0 % Test CRC 2CC46945 Copy CRC 2CC46945 Track not present in AccurateRip database Copy OK

Track 9

Filename D:\torrent\ripped by boccador\09. Дискотека с Машей – Рыбка из пруда.wav

Pre-gap length 0:00:02.00

Peak level 99.1 % Track quality 99.8 % Test CRC EDE50489 Copy CRC EDE50489 Track not present in AccurateRip database Copy OK

Track 10

Filename D:\torrent\ripped by boccador\10. Дискотека с Машей – Зов неба.wav

Pre-gap length 0:00:02.00

Peak level 96.6 % Track quality 100.0 % Test CRC EAEE4FF8 Copy CRC EAEE4FF8 Track not present in AccurateRip database Copy OK

Track 11

Filename D:\torrent\ripped by boccador\11. Дискотека с Машей – Свет любви.wav

Pre-gap length 0:00:02.00

Peak level 99.4 % Track quality 100.0 % Test CRC 82D7FCE1 Copy CRC 82D7FCE1 Track not present in AccurateRip database Copy OK

Track 12

Filename D:\torrent\ripped by boccador\12. Дискотека с Машей – Минус - фонограмма 1.wav

Pre-gap length 0:00:02.00

Peak level 100.0 % Track quality 100.0 % Test CRC F8573D7C Copy CRC F8573D7C Track not present in AccurateRip database Copy OK

Track 13

Filename D:\torrent\ripped by boccador\13. Дискотека с Машей – Минус - фонограмма 2.wav

Pre-gap length 0:00:02.00

Peak level 100.0 % Track quality 100.0 % Test CRC 31514B6E Copy CRC 31514B6E Track not present in AccurateRip database Copy OK

Track 14

Filename D:\torrent\ripped by boccador\14. Дискотека с Машей – Минус - фонограмма 3.wav

Pre-gap length 0:00:02.00

Peak level 100.0 % Track quality 100.0 % Test CRC C304ED8E Copy CRC C304ED8E Track not present in AccurateRip database Copy OK

Track 15

Filename D:\torrent\ripped by boccador\15. Дискотека с Машей – Минус - фонограмма 4.wav

Pre-gap length 0:00:02.00

Peak level 98.1 % Track quality 100.0 % Test CRC 6BD70A3B Copy CRC 6BD70A3B Track not present in AccurateRip database Copy OK

Track 16

Filename D:\torrent\ripped by boccador\16. Дискотека с Машей – Минус - фонограмма 5.wav

Pre-gap length 0:00:02.00

Peak level 95.3 % Track quality 100.0 % Test CRC 2DDB7033 Copy CRC 2DDB7033 Track not present in AccurateRip database Copy OK

Track 17

Filename D:\torrent\ripped by boccador\17. Дискотека с Машей – Минус - фонограмма 6.wav

Pre-gap length 0:00:02.00

Peak level 97.4 % Track quality 99.9 % Test CRC E18C258F Copy CRC E18C258F Track not present in AccurateRip database Copy OK

Track 18

Filename D:\torrent\ripped by boccador\18. Дискотека с Машей – Минус - фонограмма 7.wav

Pre-gap length 0:00:02.00

Peak level 100.0 % Track quality 99.9 % Test CRC EE46D29F Copy CRC EE46D29F Track not present in AccurateRip database Copy OK

Track 19

Filename D:\torrent\ripped by boccador\19. Дискотека с Машей – Минус - фонограмма 8.wav

Pre-gap length 0:00:02.00

Peak level 100.0 % Track quality 100.0 % Test CRC 79FA39A8 Copy CRC 79FA39A8 Track not present in AccurateRip database Copy OK

Track 20

Filename D:\torrent\ripped by boccador\20. Дискотека с Машей – Минус - фонограмма 9.wav

Pre-gap length 0:00:02.00

Peak level 83.9 % Track quality 99.8 % Test CRC E876082E Copy CRC E876082E Track not present in AccurateRip database Copy OK

Track 21

Filename D:\torrent\ripped by boccador\21. Дискотека с Машей – Минус - фонограмма 10.wav

Pre-gap length 0:00:02.00

Peak level 98.8 % Track quality 100.0 % Test CRC A7CE5C37 Copy CRC A7CE5C37 Track not present in AccurateRip database Copy OK

Track 22

Filename D:\torrent\ripped by boccador\22. Дискотека с Машей – Минус - фонограмма 11.wav

Pre-gap length 0:00:02.00

Peak level 97.6 % Track quality 100.0 % Test CRC 9CA20E54 Copy CRC 9CA20E54 Track not present in AccurateRip database Copy OK

None of the tracks are present in the AccurateRip database

No errors occurred

End of status report
 
REM GENRE FolkloreREM DATE 2010REM DISCID 240C8616REM COMMENT "ExactAudioCopy v0.99pb5"PERFORMER "Дискотека с Машей"TITLE "Маша и медведь"FILE "01. Дискотека с Машей – Про дружбу.wav" WAVE TRACK 01 AUDIO TITLE "Про дружбу" PERFORMER "Дискотека с Машей" INDEX 01 00:00:00 TRACK 02 AUDIO TITLE "Про следы" PERFORMER "Дискотека с Машей" INDEX 00 03:17:47FILE "02. Дискотека с Машей – Про следы.wav" WAVE INDEX 01 00:00:00 TRACK 03 AUDIO TITLE "Про варенье" PERFORMER "Дискотека с Машей" INDEX 00 01:46:74FILE "03. Дискотека с Машей – Про варенье.wav" WAVE INDEX 01 00:00:00 TRACK 04 AUDIO TITLE "Новогодняя песня" PERFORMER "Дискотека с Машей" INDEX 00 01:32:09FILE "04. Дискотека с Машей – Новогодняя песня.wav" WAVE INDEX 01 00:00:00 TRACK 05 AUDIO TITLE "Коньки" PERFORMER "Дискотека с Машей" INDEX 00 03:06:00FILE "05. Дискотека с Машей – Коньки.wav" WAVE INDEX 01 00:00:00 TRACK 06 AUDIO TITLE "Три желания" PERFORMER "Дискотека с Машей" INDEX 00 01:42:39FILE "06. Дискотека с Машей – Три желания.wav" WAVE INDEX 01 00:00:00 TRACK 07 AUDIO TITLE "День рождения" PERFORMER "Дискотека с Машей" INDEX 00 02:46:32FILE "07. Дискотека с Машей – День рождения.wav" WAVE INDEX 01 00:00:00 TRACK 08 AUDIO TITLE "Каникулы" PERFORMER "Дискотека с Машей" INDEX 00 03:29:39FILE "08. Дискотека с Машей – Каникулы.wav" WAVE INDEX 01 00:00:00 TRACK 09 AUDIO TITLE "Рыбка из пруда" PERFORMER "Дискотека с Машей" INDEX 00 02:00:27FILE "09. Дискотека с Машей – Рыбка из пруда.wav" WAVE INDEX 01 00:00:00 TRACK 10 AUDIO TITLE "Зов неба" PERFORMER "Дискотека с Машей" INDEX 00 01:30:48FILE "10. Дискотека с Машей – Зов неба.wav" WAVE INDEX 01 00:00:00 TRACK 11 AUDIO TITLE "Свет любви" PERFORMER "Дискотека с Машей" INDEX 00 02:00:28FILE "11. Дискотека с Машей – Свет любви.wav" WAVE INDEX 01 00:00:00 TRACK 12 AUDIO TITLE "Минус - фонограмма 1" PERFORMER "Дискотека с Машей" INDEX 00 03:11:25FILE "12. Дискотека с Машей – Минус - фонограмма 1.wav" WAVE INDEX 01 00:00:00 TRACK 13 AUDIO TITLE "Минус - фонограмма 2" PERFORMER "Дискотека с Машей" INDEX 00 03:18:03FILE "13. Дискотека с Машей – Минус - фонограмма 2.wav" WAVE INDEX 01 00:00:00 TRACK 14 AUDIO TITLE "Минус - фонограмма 3" PERFORMER "Дискотека с Машей" INDEX 00 01:46:74FILE "14. Дискотека с Машей – Минус - фонограмма 3.wav" WAVE INDEX 01 00:00:00 TRACK 15 AUDIO TITLE "Минус - фонограмма 4" PERFORMER "Дискотека с Машей" INDEX 00 01:32:09FILE "15. Дискотека с Машей – Минус - фонограмма 4.wav" WAVE INDEX 01 00:00:00 TRACK 16 AUDIO TITLE "Минус - фонограмма 5" PERFORMER "Дискотека с Машей" INDEX 00 03:06:37FILE "16. Дискотека с Машей – Минус - фонограмма 5.wav" WAVE INDEX 01 00:00:00 TRACK 17 AUDIO TITLE "Минус - фонограмма 6" PERFORMER "Дискотека с Машей" INDEX 00 01:42:65FILE "17. Дискотека с Машей – Минус - фонограмма 6.wav" WAVE INDEX 01 00:00:00 TRACK 18 AUDIO TITLE "Минус - фонограмма 7" PERFORMER "Дискотека с Машей" INDEX 00 02:46:00FILE "18. Дискотека с Машей – Минус - фонограмма 7.wav" WAVE INDEX 01 00:00:00 TRACK 19 AUDIO TITLE "Минус - фонограмма 8" PERFORMER "Дискотека с Машей" INDEX 00 03:32:37FILE "19. Дискотека с Машей – Минус - фонограмма 8.wav" WAVE INDEX 01 00:00:00 TRACK 20 AUDIO TITLE "Минус - фонограмма 9" PERFORMER "Дискотека с Машей" INDEX 00 02:00:27FILE "20. Дискотека с Машей – Минус - фонограмма 9.wav" WAVE INDEX 01 00:00:00 TRACK 21 AUDIO TITLE "Минус - фонограмма 10" PERFORMER "Дискотека с Машей" INDEX 00 01:30:48FILE "21. Дискотека с Машей – Минус - фонограмма 10.wav" WAVE INDEX 01 00:00:00 TRACK 22 AUDIO TITLE "Минус - фонограмма 11" PERFORMER "Дискотека с Машей" INDEX 00 02:00:27FILE "22. Дискотека с Машей – Минус - фонограмма 11.wav" WAVE INDEX 01 00:00:00
Песни из мультфильмов "Маша и Медведь" и "День рождения Алисы".
Вкладыш содержит тексты песен!

Трекер:  [ 18-Дек-2010 12:56 ]

  

Скачать .torrent

Размер .torrent файла 18 KB


Размер: 370 MB
Хэш (hash) релиза: 436a8fd1451c5c13a6ee28e4ebf816f48e207cfa

Еще никто не оставлял запись к записи скачать торрент Маша и Медведь - Дискотека с Машей - 2010, FLAC . Будь первым!

!Обратная связь