Скачать порно через торрент Aku no Onna Kanbu: Full Moon Night Коварный повелитель женщин: Ночь полнолуния UnionPeer.org бесплатно онлайн HD качество

Скачать новое порно 2015, 2014 новинки через торрент UnionPeer.org

Порно торрент бесплатно ЮнионПир.орг

Если у вас наблюдаются проблемы со скриншотами, переходом по ссылками, скачиванием торрентов - проблемы в блокировщике рекламы AdBlock. #хорошегоДня!


Статистика раздачи
Размер:  1.63 GB   |    Зарегистрирован:  4 года 5 месяцев   |    .torrent скачан:  297 раз   |   
Раздают:  1  
   
Загрузка...
 
Автор Сообщение

Galfimbul

avatar Galfimbul


悪の女幹部 フルムーンナイト | Aku no Onna Kanbu: Full Moon Night | Коварный повелитель женщин: Ночь полнолуния«Even if you're an executive, failure must be punished.»


Год выпуска: 2012
Страна: Япония
Жанр: anal, big breasts, demons, group sex, oral, titsjob, virgin, yuri
Продолжительность: >1 эп. 30 мин.
Субтитры: Отсутствуют
Цензура: Присутствует
Режиссёр: Raika Ken
Студия: T-Rex
Описание:
Katsuma, Great Lunarium's lone male executive, is the one who is tasked with enforcing this rule. Abusing his authority, he inflicts sexual pleasure hell on the female executives who fail in their tasks. Over the years, he had built up a deep enmity against these arrogant women who regularly bullied him, but now, it is time for his revenge. His next targets are:
Ephanatica - Extremely loyal to Great Lunarium, her appearance is that of a demon, compensation for her powers; and
Diana - An earthling who betrayed her people, whose breasts are the largest amongst the executives.
Информационные ссылки: AniDB || MAL || World Art || ХентайМаг
Исходник: DVD-5
Видео: MPEG2 | NTSC | 16x9 | 720x480 | 7880 Kbps
Аудио JAP: AC-3 | 48000Hz | 224 Kbps | 2ch
01. Volume 1
General
Complete name : H:\VIDEO_TS\VTS_01_1.VOB
Format : MPEG-PS
File size : 1 024 MiB
Duration : 12s 346ms
Overall bit rate : 696 Mbps

Video
ID : 224 (0xE0)
Format : MPEG Video
Format version : Version 2
Format profile : Main@Main
Format settings, BVOP : Yes
Format settings, Matrix : Default
Format settings, GOP : M=3, N=12
Duration : 12s 346ms
Bit rate : 682 Mbps
Maximum bit rate : 7 880 Kbps
Width : 720 pixels
Height : 480 pixels
Display aspect ratio : 16:9
Frame rate : 29.970 fps
Standard : NTSC
Color space : YUV
Chroma subsampling : 4:2:0
Bit depth : 8 bits
Scan type : Interlaced
Scan order : Bottom Field First
Compression mode : Lossy
Bits/(Pixel*Frame) : 65.815
Stream size : 1 003 MiB (98%)

Audio
ID : 189 (0xBD)-128 (0x80)
Format : AC-3
Format/Info : Audio Coding 3
Mode extension : CM (complete main)
Muxing mode : DVD-Video
Duration : 12s 224ms
Bit rate mode : Constant
Bit rate : 224 Kbps
Channel(s) : 2 channels
Channel positions : Front: L R
Sampling rate : 48.0 KHz
Bit depth : 16 bits
Compression mode : Lossy
Delay relative to video : -66ms
Stream size : 334 KiB (0%)


Трекер:  [ 09-Мар-2013 12:55 ]

  

Скачать .torrent

Размер .torrent файла 17 KB


Размер: 1.63 GB
Хэш (hash) релиза: 7ca7ece595ddac80f10b79c9098d5acb3e4d788c

Торренты, похожие на Aku no Onna Kanbu: Full Moon Night Коварный повелитель женщин: Ночь полнолуния скачать торрент

Форум Название Автор Размер S L Добавлен
Хентай, порно и эротические мультфильмы ·· Aku no Onna Kanbu: Full Moon Night / Коварный повелитель женщин: Ночь полнолуния (Raika Ken, T-Rex) (ep. 1 of ?) [cen] [2012 г. Big breasts, Anal, Group sex, Oral, Titsjob, Virgin, Demons, DVDRip] [jap / eng / rus] Galfimbul 384870540367 MB 0 0 1359992520

18:42

4-Фев-13

Еще никто не оставлял запись к записи скачать торрент Aku no Onna Kanbu: Full Moon Night Коварный повелитель женщин: Ночь полнолуния . Будь первым!

!Обратная связь