Скачать через торрент музыку Martina Topley-Bird – Anything бесплатно без регистрации torrent

Если у вас наблюдаются проблемы со скриншотами, переходом по ссылками, скачиванием торрентов - проблемы в блокировщике рекламы AdBlock. #хорошегоДня!


Статистика раздачи
Размер:  322 MB   |    Зарегистрирован:  4 года 7 месяцев   |    .torrent скачан:  26 раз   |   
Раздают:  1  
   
Загрузка...
 
Автор Сообщение

Galfimbul

avatar Galfimbul


Martina Topley-Bird – Anything

Страна: UK
Жанр: Trip Hop, Soul
Продолжительность: 04:39
Год выпуска: 2003

Источник: [url=http://http://рутраскер/forum/viewtopic.php?t=3772184]Anything [DVD Single] [2003] [DVD5][/url]

Доп. информация:

Качество: DVD
Контейнер: VOB
Видео кодек: MPEG2
Аудио кодек: PCM
Видео: MPEG2 | 720x576 [4:3] | 8000 kbps | 25 fps
Аудио: PCM | 1536 kbps | 2 ch | 48 kHz
General
Complete name : D:\Torrents\rutracker\video\Martina Topley-Bird - Anything.vob
Format : MPEG-PS
File size : 322 MiB
Duration : 4mn 39s
Overall bit rate : 9 684 Kbps

Video
ID : 224 (0xE0)
Format : MPEG Video
Format version : Version 2
Format profile : Main@Main
Format settings, BVOP : Yes
Format settings, Matrix : Default
Format settings, GOP : M=3, N=4
Duration : 4mn 39s
Bit rate : 8 000 Kbps
Width : 720 pixels
Height : 576 pixels
Display aspect ratio : 4:3
Frame rate : 25.000 fps
Standard : PAL
Color space : YUV
Chroma subsampling : 4:2:0
Bit depth : 8 bits
Scan type : Interlaced
Scan order : Top Field First
Compression mode : Lossy
Bits/(Pixel*Frame) : 0.772
Stream size : 265 MiB (82%)
Color primaries : BT.601 PAL
Transfer characteristics : BT.470 System B, BT.470 System G
Matrix coefficients : BT.601

Audio
ID : 189 (0xBD)-160 (0xA0)
Format : PCM
Format settings, Endianness : Big
Format settings, Sign : Signed
Muxing mode : DVD-Video
Duration : 4mn 38s
Bit rate mode : Constant
Bit rate : 1 536 Kbps
Channel(s) : 2 channels
Sampling rate : 48.0 KHz
Bit depth : 16 bits
Stream size : 51.1 MiB (16%)

Menu
General
Complete name : D:\Releases\rutracker\video\Martina Topley-Bird - Anything DVD\VIDEO_TS\VTS_01_1.VOB
Format : MPEG-PS
File size : 886 MiB
Duration : 4mn 4s
Overall bit rate : 30.3 Mbps

Video
ID : 224 (0xE0)
Format : MPEG Video
Format version : Version 2
Format profile : Main@Main
Format settings, BVOP : Yes
Format settings, Matrix : Default
Format settings, GOP : Variable
Duration : 4mn 4s
Bit rate : 28.2 Mbps
Maximum bit rate : 8 000 Kbps
Width : 720 pixels
Height : 576 pixels
Display aspect ratio : 4:3
Frame rate : 25.000 fps
Standard : PAL
Color space : YUV
Chroma subsampling : 4:2:0
Bit depth : 8 bits
Scan type : Interlaced
Scan order : Top Field First
Compression mode : Lossy
Bits/(Pixel*Frame) : 2.720
Stream size : 824 MiB (93%)
Color primaries : BT.601 PAL
Transfer characteristics : BT.470 System B, BT.470 System G
Matrix coefficients : BT.601

Audio
ID : 189 (0xBD)-160 (0xA0)
Format : PCM
Format settings, Endianness : Big
Format settings, Sign : Signed
Muxing mode : DVD-Video
Duration : 4mn 4s
Bit rate mode : Constant
Bit rate : 1 536 Kbps
Channel(s) : 2 channels
Sampling rate : 48.0 KHz
Bit depth : 16 bits
Stream size : 44.9 MiB (5%)

Menu


Трекер:  [ 19-Мар-2013 18:49 ]

  

Скачать .torrent

Размер .torrent файла 13 KB


Размер: 322 MB
Хэш (hash) релиза: eb4dcb6fde975212b24a6709cda0f130dd51bb13

Еще никто не оставлял запись к записи скачать торрент Martina Topley-Bird – Anything . Будь первым!

!Обратная связь