Rudimental Ft John Newman And Alex Clare - Not Giving In torrent

, , - AdBlock. #!


108 MB   |    :  4 7    |    .torrent :  27    |   
1  
   
...
 

Galfimbul

avatar Galfimbul


Rudimental Ft John Newman And Alex Clare - Not Giving In
: Drum & Bass
: 00:04:36
: 2012
: HDTVRip
: MKV
: MPEG-4 AVC Video, 712x432 (2.338) at 25.000 fps, 2984 Kbps
: MP3, 2(ch) Front: L R, 44,1 kHz, VBR @ 223 Kbps




Format : Matroska
File size : 108 MiB
Duration : 4mn 36s
Overall bit rate : 3 272 Kbps
Encoded date : UTC 2012-11-22 22:26:25
Writing application : mkvmerge v5.7.0 (''The Whirlwind'') built on Jul 8 2012 20:08:51
Writing library : libebml v1.2.3 + libmatroska v1.3.0

Video
ID : 1
Format : AVC
Format/Info : Advanced Video Codec
Format profile : Main@L3.0
Format settings, CABAC : Yes
Format settings, ReFrames : 5 frames
Codec ID : V_MPEG4/ISO/AVC
Duration : 4mn 36s
Bit rate : 2 984 Kbps
Width : 712 pixels
Height : 432 pixels
Display aspect ratio : 2.35:1
Original display aspect ratio : 2.35:1
Frame rate : 25.000 fps
Color space : YUV
Chroma subsampling : 4:2:0
Bit depth : 8 bits
Scan type : Progressive
Bits/(Pixel*Frame) : 0.388
Stream size : 98.3 MiB (91%)
Writing library : x264 core 129 r2230 1cffe9f
Encoding settings : cabac=1 / ref=5 / deblock=1:0:0 / analyse=0x1:0x111 / me=umh / subme=9 / psy=1 / psy_rd=1.00:0.00 / mixed_ref=1 / me_range=24 / chroma_me=1 / trellis=1 / 8x8dct=0 / cqm=0 / deadzone=21,11 / fast_pskip=1 / chroma_qp_offset=-2 / threads=12 / lookahead_threads=2 / sliced_threads=0 / nr=0 / decimate=1 / interlaced=0 / bluray_compat=0 / constrained_intra=0 / bframes=16 / b_pyramid=2 / b_adapt=1 / b_bias=0 / direct=1 / weightb=1 / open_gop=0 / weightp=2 / keyint=250 / keyint_min=25 / scenecut=40 / intra_refresh=0 / rc_lookahead=40 / rc=crf / mbtree=1 / crf=18.0 / qcomp=0.60 / qpmin=0 / qpmax=69 / qpstep=4 / ip_ratio=1.40 / aq=1:1.00
Language : English

Audio
ID : 2
Format : MPEG Audio
Format version : Version 1
Format profile : Layer 3
Mode : Joint stereo
Mode extension : MS Stereo
Codec ID : A_MPEG/L3
Codec ID/Hint : MP3
Duration : 4mn 36s
Bit rate mode : Variable
Bit rate : 223 Kbps
Minimum bit rate : 32.0 Kbps
Channel(s) : 2 channels
Sampling rate : 44.1 KHz
Compression mode : Lossy
Delay relative to video : 30ms
Stream size : 7.35 MiB (7%)
Writing library : LAME3.98r
Encoding settings : -m j -V 0 -q 0 -lowpass 19.5 --vbr-new -b 32

ܲ ߲ ܲ ޲ݰ ޲ ܰ ߲ ܱ ޲ ޲ ۲ ޲ zEmra ۲ ߲ ް ۲۲ ߲ ߲ ܲ ޲ܲ۲ ߲ ۲ ܲ۰ ۲ ܲ۱ ۲ ޲۲ ۲ ܲ ݲ ۲۲ ۲ ޲ ۲ ۰߰۲ ۰۰ ۰۲ ޲ ۱۱۱۲ ܲ۲۲ ۲ ߲ ܲ ߲۲ ۲ ۲ ۲ ۲ ۲ ߲۲ ޲ ۱ ޲ ߲ܲ ޲ ۲ ߲ ߲ ޲ ܲ۲ ۰ ߲ ߲ ܲ ߲۲ ۲ ۱ ܲ ܲRudimental_Ft_John_Newman_And_Alex_Clare-Not_Giving_In-x264-2012-FRA ޲ ۲ Our Release Date : 23 November 2012 (GMT) ۲ ۱ Artist : Rudimental Ft John Newman And Alex Clare ۰ Song : Not Giving In ۰ Language : English ۰ Video Source : DVB ۲ Audio Source : MP3 ۲ Audio Album : ۱ Deinterlace Method : None/Progressive ۰ Genre : Drum & Bass ۰ Year : 2012 ۲ ۲ Video Format : x264 ۱ Video Bit Rate : 2 984 Kbps ۰ Encoded Resolution : 712x432 ۰ Frame Rate : 25.000 fps Display Aspect Ratio : 2.338 ۲ ۲ Audio Format : MP3 ۱ Audio Bitrate : 223 Kbps ۰ Sampling rate : 44.1 KHz ۰ Channel(s) : 2 channels File Size : 107.75Mb Play Time : 4mn 36s ߲ ۲ ۲ܲ ۱ ߲ ۰ ޲ݰݰ ۰ ܲ۲ ܲ ۲ ۲߲߲ܲ ܲ ۲ ܲ ߲ ۱ ߲ ۰ ۰ ۰ Used non-scene WEB audio, lame 3.97 cbr 320. Enjoy. Source: http://www.beatport.com/release/not-giving-in/998080 > got talent? got supplies? got something of use? then get -FRAY > music video supplies (dvd/bluray) > promoonly/rockamerica/mixmash/etc > music video capture (dvb-t/s/c, firewire, hdmi) > fuse/fusehd/mtv/mtvhd/mtv2/mtvjams/bet/vh1/tmf/rage/4music/etc > music video ddc (direct downloadable content) > thevideopool/smashvision/my12inch/promoonly/screenplayvj/etc ۰ > music video converter (mpeg2/h264) > manual ivtc ntsc, pal, audio sync and mixing ۰ > music audio supplier (web/cd/vinyl) > web shop/cd bootleg/cd promo/cd retail/vinyl ۲ ۲ ۰ ܲ ܲ ޲ ۰ ܲ ߲ ۱ ۰۲ zEmra ۲ 2008 ܲܲ ߲ ߲ܲ۲ ۲ ߲ ܱ ۲ ް ޲ ߰ ߱



 ·  , , FAQ-
:  [ 19--2013 18:49 ]

  

.torrent

.torrent 17 KB


: 108 MB
(hash) : 35a3997dda6ce1ae8fc40461aede78ece681865f
··
...

Rudimental Ft John Newman And Alex Clare - Not Giving In . !

!