Скачать через торрент музыку Шоу Элементы: Модель для сборки бесплатно без регистрации torrent

Если у вас наблюдаются проблемы со скриншотами, переходом по ссылками, скачиванием торрентов - проблемы в блокировщике рекламы AdBlock. #хорошегоДня!


Статистика раздачи
Размер:  1.71 GB   |    Зарегистрирован:  4 года 7 месяцев   |    .torrent скачан:  34 раза   |   
Раздают:  1  
   
Загрузка...
 
Автор Сообщение

Galfimbul

avatar Galfimbul


Шоу Элементы: Модель для сборки
Страна: Россия
Жанр: Electronic
Продолжительность: 1:30:59
Год выпуска: 2002

Описание: Шоу "Элементы: Модель для сборки" на национальном музыкальном канале Муз-ТВ

Режиссёры: Влад Копп, Андрей Кильдеев (DJ Incognito), Михаил Габович, Наталья Урман

Играет: Резидент программы DJ Габович
Литература: Кэролин Черри - "Повелительница тьмы"

Источник: Собственный рип

Качество: VHSRip
Контейнер: AVI
Видео кодек: XVID
Аудио кодек: MP3
Видео: 720 x 576, 25 fps, XVID 4:3, 2493 kbps
Аудио: MP3, 192 kbps, 48000 Joint stereo
General
Complete name : D:\Клипы\Muz-TV\Теленочь\DJ Gabovich.avi
Format : AVI
Format/Info : Audio Video Interleave
File size : 1.71 GiB
Duration : 1h 30mn
Overall bit rate : 2 695 Kbps
Movie name : DJ Gabovich
Director : EMDS
Writing library : VirtualDub build 32842/release

Video
ID : 0
Format : MPEG-4 Visual
Format profile : Advanced Simple@L5
Format settings, BVOP : 2
Format settings, QPel : No
Format settings, GMC : No warppoints
Format settings, Matrix : Default (H.263)
Muxing mode : Packed bitstream
Codec ID : XVID
Codec ID/Hint : XviD
Duration : 1h 30mn
Bit rate : 2 493 Kbps
Width : 720 pixels
Height : 576 pixels
Display aspect ratio : 4:3
Frame rate : 25.000 fps
Standard : PAL
Color space : YUV
Chroma subsampling : 4:2:0
Bit depth : 8 bits
Scan type : Progressive
Compression mode : Lossy
Bits/(Pixel*Frame) : 0.240
Stream size : 1.58 GiB (93%)
Writing library : XviD 64

Audio
ID : 1
Format : MPEG Audio
Format version : Version 1
Format profile : Layer 3
Mode : Joint stereo
Codec ID : 55
Codec ID/Hint : MP3
Duration : 1h 30mn
Bit rate mode : Constant
Bit rate : 192 Kbps
Channel(s) : 2 channels
Sampling rate : 48.0 KHz
Compression mode : Lossy
Stream size : 125 MiB (7%)
Alignment : Split accross interleaves
Interleave, duration : 40 ms (1.00 video frame)
Interleave, preload duration : 500 ms
Внимание! 21.12.2012 торрент снова перезалит! Удалось значительно улучшить качество. Просьба ко всем, перекачать торрент! Приношу извинения за доставленные неудобства.


Трекер:  [ 19-Мар-2013 18:49 ]

  

Скачать .torrent

Размер .torrent файла 17 KB


Размер: 1.71 GB
Хэш (hash) релиза: e094082ce2723ddced30bc9853dcaacda220b108

Торренты, похожие на Шоу Элементы: Модель для сборки скачать торрент

Форум Название Автор Размер S L Добавлен
Электронная музыка ·· Шоу Элементы: Модель для сборки (ЭМДС) [2002, Electronic, VHSRip] Galfimbul 18382690241.71 GB 0 0 1357031700

12:15

1-Янв-13

Еще никто не оставлял запись к записи скачать торрент Шоу Элементы: Модель для сборки . Будь первым!

!Обратная связь