Скачать через торрент музыку Soulsavers бесплатно без регистрации torrent

Если у вас наблюдаются проблемы со скриншотами, переходом по ссылками, скачиванием торрентов - проблемы в блокировщике рекламы AdBlock. #хорошегоДня!


Статистика раздачи
Размер:  260 MB   |    Зарегистрирован:  4 года 7 месяцев   |    .torrent скачан:  49 раз   |   
Раздают:  1  
   
Загрузка...
 
Автор Сообщение

Galfimbul

avatar Galfimbul



Soulsavers (feat. Dave Gahan) / Intimate Set in Los Angeles (Live)
Страна: USA
Жанр: Alternative Rock
Продолжительность: 00:28:53
Год выпуска: 2012 г.
Треклист:
01. Presence of God
02. In the Morning
03. Bitterman
04. Just Try
05. Take Me Back Home
06. Tonight
07. Gone Too Far

Качество: DVDScr
Контейнер: Mp4
Видео кодек: AVC
Аудио кодек: AAC
Видео: 864x480 (16:9) 30,000 fps 1200 kbps
Аудио: 44,1 / 22,05 KHz 2ch 42,5 kbps
Общее
Полное имя                               : D:\Раздачи (http://рутраскер)\Soulsavers - Live in Hollywood (2012).mp4
Формат                                   : MPEG-4
Профиль формата                          : Base Media
Идентификатор кодека                     : isom
Размер файла                             : 260 Мбайт
Продолжительность                        : 28 м.
Режим общего битрейта                    : Переменный
Общий поток                              : 1257 Кбит/сек
Программа кодирования                    : Lavf53.4.0

Видео
Идентификатор                            : 1
Формат                                   : AVC
Формат/Информация                        : Advanced Video Codec
Профиль формата                          : High@L3.1
Параметр CABAC формата                   : Нет
Параметр ReFrames формата                : 5 кадров
Параметр GOP формата                     : M=1, N=30
Идентификатор кодека                     : avc1
Идентификатор кодека/Информация          : Advanced Video Coding
Продолжительность                        : 28 м.
Битрейт                                  : 1200 Кбит/сек
Ширина                                   : 864 пикселя
Высота                                   : 480 пикселей
Соотношение сторон                       : 16:9
Режим частоты кадров                     : Постоянный
Частота кадров                           : 30,000 кадров/сек
Цветовое пространство                    : YUV
Субдискретизация насыщенности            : 4:2:0
Битовая глубина                          : 8 бит
Тип развёртки                            : Прогрессивная
Бит/(Пиксели*Кадры)                      : 0.096
Размер потока                            : 237 Мбайт (91%)
Библиотека кодирования                   : x264 core 116
Настройки программы                      : cabac=0 / ref=5 / deblock=1:0:0 / analyse=0x3:0x113 / me=hex / subme=7 / psy=1 / psy_rd=1.00:0.00 / mixed_ref=1 / me_range=16 / chroma_me=0 / trellis=1 / 8x8dct=1 / cqm=0 / deadzone=21,11 / fast_pskip=1 / chroma_qp_offset=-2 / threads=24 / sliced_threads=0 / nr=0 / decimate=1 / interlaced=0 / bluray_compat=0 / constrained_intra=0 / bframes=4 / b_pyramid=0 / b_adapt=2 / b_bias=0 / direct=2 / weightb=1 / open_gop=0 / weightp=0 / keyint=30 / keyint_min=16 / scenecut=40 / intra_refresh=0 / rc_lookahead=30 / rc=2pass / mbtree=0 / bitrate=1200 / ratetol=1.0 / qcomp=0.60 / qpmin=10 / qpmax=51 / qpstep=4 / cplxblur=20.0 / qblur=0.5 / vbv_maxrate=1200 / vbv_bufsize=600 / nal_hrd=none / ip_ratio=1.41 / pb_ratio=1.25 / aq=1:1.00
Дата пометки                             : UTC 2012-12-12 04:27:13

Аудио
Идентификатор                            : 2
Формат                                   : AAC
Формат/Информация                        : Advanced Audio Codec
Профиль формата                          : HE-AAC / LC
Идентификатор кодека                     : 40
Продолжительность                        : 28 м.
Вид битрейта                             : Переменный
Битрейт                                  : 40,0 Кбит/сек
Максимальный битрейт                     : 42,5 Кбит/сек
Каналы                                   : 2 канала
Расположение каналов                     : Front: L R
Частота                                  : 44,1 КГц / 22,05 КГц
Метод сжатия                             : С потерями
Размер потока                            : 8,26 Мбайт (3%)
Дата пометки                             : UTC 2012-12-12 04:27:13


Трекер:  [ 19-Мар-2013 18:20 ]

  

Скачать .torrent

Размер .torrent файла 10 KB


Размер: 260 MB
Хэш (hash) релиза: 0cc0d435591aa8157fd6d6924fe99e2e8fbaa0f6

Еще никто не оставлял запись к записи скачать торрент Soulsavers . Будь первым!

!Обратная связь