Скачать через торрент музыку Franka Potente - Believe бесплатно без регистрации torrent

Если у вас наблюдаются проблемы со скриншотами, переходом по ссылками, скачиванием торрентов - проблемы в блокировщике рекламы AdBlock. #хорошегоДня!


Статистика раздачи
Размер:  170 MB   |    Зарегистрирован:  4 года 7 месяцев   |    .torrent скачан:  24 раза   |   
Раздают:  1  
   
Загрузка...
 
Автор Сообщение

Galfimbul

avatar Galfimbul


Franka Potente - Believe

Страна: Germany
Жанр: Techno
Продолжительность: 03:51
Год выпуска: 1998

Источник: скачано из сети [MVids]

Доп. информация:


Качество: PromoDVD
Контейнер: VOB
Видео кодек: MPEG2
Аудио кодек: PCM
Видео: MPEG2 | 720x480 [4:3] | 4482 kbps | 29.97 fps
Аудио: PCM | 1536 kbps | 2 ch | 48 kHz
General
Complete name : D:\Torrents\rutracker\video\Franka Potente - Believe.vob
Format : MPEG-PS
File size : 170 MiB
Duration : 3mn 51s
Overall bit rate mode : Variable
Overall bit rate : 6 140 Kbps

Video
ID : 224 (0xE0)
Format : MPEG Video
Format version : Version 2
Format profile : Main@Main
Format settings, BVOP : Yes
Format settings, Matrix : Custom
Format settings, GOP : M=3, N=15
Duration : 3mn 51s
Bit rate mode : Variable
Bit rate : 4 482 Kbps
Maximum bit rate : 8 000 Kbps
Width : 720 pixels
Height : 480 pixels
Display aspect ratio : 4:3
Frame rate : 29.970 fps
Standard : NTSC
Color space : YUV
Chroma subsampling : 4:2:0
Bit depth : 8 bits
Scan type : Interlaced
Scan order : Bottom Field First
Compression mode : Lossy
Bits/(Pixel*Frame) : 0.433
Stream size : 124 MiB (73%)
Color primaries : BT.601 NTSC
Transfer characteristics : BT.601
Matrix coefficients : BT.601

Audio
ID : 189 (0xBD)-160 (0xA0)
Format : PCM
Format settings, Endianness : Big
Format settings, Sign : Signed
Muxing mode : DVD-Video
Duration : 3mn 51s
Bit rate mode : Constant
Bit rate : 1 536 Kbps
Channel(s) : 2 channels
Sampling rate : 48.0 KHz
Bit depth : 16 bits
Delay relative to video : -281ms
Stream size : 42.4 MiB (25%)

Menu

20/01/2013:
заменил на PromoDVD.



Трекер:  [ 19-Мар-2013 18:20 ]

  

Скачать .torrent

Размер .torrent файла 13 KB


Размер: 170 MB
Хэш (hash) релиза: 9aaef9fa0b16c0d5695006d2f28b0accb4d186df

Торренты, похожие на Franka Potente - Believe скачать торрент

Форум Название Автор Размер S L Добавлен
Электронная музыка ·· Franka Potente - Believe [1998, Techno, DVD] Galfimbul 160063488153 MB 0 0 1336848480

21:48

12-Май-12

Еще никто не оставлял запись к записи скачать торрент Franka Potente - Believe . Будь первым!

!Обратная связь