Скачать через торрент музыку Sia бесплатно без регистрации torrent

Если у вас наблюдаются проблемы со скриншотами, переходом по ссылками, скачиванием торрентов - проблемы в блокировщике рекламы AdBlock. #хорошегоДня!


Статистика раздачи
Размер:  195 MB   |    Зарегистрирован:  4 года 7 месяцев   |    .torrent скачан:  36 раз   |   
Раздают:  1  
   
Загрузка...
 
Автор Сообщение

Galfimbul

avatar Galfimbul


Sia (Sia Furler) - Soon We'll Be Found

Страна: Australia
Жанр: Pop, Easy Listening
Продолжительность: 03:59
Год выпуска: 2008

Источник: скачано из сети [MVids]

Доп. информация:


Качество: PromoDVD
Контейнер: VOB
Видео кодек: MPEG2
Аудио кодек: PCM
Видео: MPEG2 | 720x480 [4:3] | 5167 kbps | 29.970 fps
Аудио: PCM | 1536 kbps | 2 ch | 48 kHz
General
Complete name : C:\Releases\rutracker\video\Sia - Soon We'll Be Found.vob
Format : MPEG-PS
File size : 195 MiB
Duration : 3mn 59s
Overall bit rate mode : Variable
Overall bit rate : 6 839 Kbps
Writing library : encoded by TMPGEnc 3.0 XPress Version. 3.0.4.24

Video
ID : 224 (0xE0)
Format : MPEG Video
Format version : Version 2
Format profile : Main@Main
Format settings, BVOP : Yes
Format settings, Matrix : Custom
Format settings, GOP : Variable
Duration : 3mn 59s
Bit rate mode : Variable
Bit rate : 5 167 Kbps
Maximum bit rate : 8 000 Kbps
Width : 720 pixels
Height : 480 pixels
Display aspect ratio : 4:3
Frame rate : 29.970 fps
Standard : NTSC
Color space : YUV
Chroma subsampling : 4:2:0
Bit depth : 8 bits
Compression mode : Lossy
Bits/(Pixel*Frame) : 0.499
Stream size : 148 MiB (76%)
Alignment : encoded by TMPGEnc 3.0 XPress Version. 3.0.4.24
Title : TMPGEnc
Writing application : 3.0 XPress Version. 3.0.4.24
Writing library : TMPGEnc 3.0 XPress Version. 3.0.4.24
Color primaries : BT.601 PAL
Transfer characteristics : BT.470 System B, BT.470 System G
Matrix coefficients : FCC 73.682

Audio
ID : 189 (0xBD)-160 (0xA0)
Format : PCM
Format settings, Endianness : Big
Format settings, Sign : Signed
Muxing mode : DVD-Video
Duration : 3mn 59s
Bit rate mode : Constant
Bit rate : 1 536 Kbps
Channel(s) : 2 channels
Sampling rate : 48.0 KHz
Bit depth : 16 bits
Delay relative to video : -102ms
Stream size : 43.9 MiB (22%)

Menu


Трекер:  [ 19-Мар-2013 18:20 ]

  

Скачать .torrent

Размер .torrent файла 15 KB


Размер: 195 MB
Хэш (hash) релиза: 610321bd6b3374ebb6b61cfd8e322b6e62229dd7

Торренты, похожие на Sia скачать торрент

Форум Название Автор Размер S L Добавлен
Электронная музыка (lossless) ·· (Pop, Indie) [WEB] Sia (Sia Furler) - 1000 Forms Of Fear (Bonus Track Version) - 2014, FLAC (tracks), lossless Galfimbul 441733166421 MB 0 0 1417637199

23:06

3-Дек-14

Rосk | Mеtаl | Аltеrnаtivе, Рunk, Indереndеnt (mр3) ·· (Rock) Vasco Rossi - "...ma cosa vuoi che sia una canzone..." (Reissue 2017) - 1978, MP3, 320 kbps Galfimbul 7670257373 MB 0 0 1503210769

09:32

20-Авг-17

Rосk | Mеtаl | Аltеrnаtivе, Рunk, Indереndеnt (mр3) ·· [BLR] (Alternative, Punk-Rock, Ska-punk) The Superbullz - Hardcore zachodniaha palieśsia (Хардкор заходняга палесься) - 2017, MP3, 320 kbps Galfimbul 9996196495 MB 0 0 1495301141

20:25

20-Май-17

Электронная музыка (mp3) ·· (Indie Pop / Chillout) Sia - This Is Acting (Deluxe Edition) - 2016, MP3 (tracks), 320 kbps Galfimbul 185264403177 MB 0 0 1477049876

14:37

21-Окт-16

Rосk | Mеtаl | Аltеrnаtivе, Рunk, Indереndеnt (mр3) ·· (Rock, Pop) I Nomadi - Così sia [XXIV Tributo ad Augusto Daolio] - 2016, MP3, 320 kbps Galfimbul 232453579222 MB 0 0 1472329406

23:23

27-Авг-16

Электронная музыка (lossless) ·· (chillout / downtempo) [CD] Sia - Some People Have Real Problems - 2008, FLAC (tracks), lossless Galfimbul 334024042319 MB 0 0 1463860815

23:00

21-Май-16

Электронная музыка (lossless) ·· (Trance) [WEB] Ciro Visone - Fantàsia - 2016, FLAC (tracks), lossless Galfimbul 11681434331.09 GB 0 0 1458562462

15:14

21-Мар-16

Электронная музыка (mp3) ·· (Pop) Sia - This Is Acting (Japan Edition) - 2016, , MP3, 320 kbps Galfimbul 144732626138 MB 0 0 1455483745

00:02

15-Фев-16

Электронная музыка (lossless) ·· (Pop, Indie, Chillout) [CD] Sia - This Is Acting (Target Deluxe Edition) - 2016, FLAC (tracks+.cue), lossless Galfimbul 393664082375 MB 0 0 1454611831

21:50

4-Фев-16

Электронная музыка (lossless) ·· (Pop, Indie, Chillout, Alternative) [CD] Sia - This Is Acting (Target Deluxe Edition) - 2016, FLAC (tracks), lossless Galfimbul 395155109377 MB 0 0 1453721545

14:32

25-Янв-16

Электронная музыка (mp3) ·· (POp) Sia - This Is Acting - 2016, MP3, 320 kbps Galfimbul 130942254125 MB 0 0 1453704868

09:54

25-Янв-16

Электронная музыка (lossless) ·· (Pop) [WEB] Sia - Reaper (Single) - 2016, FLAC (tracks), lossless Galfimbul 2638601325 MB 0 0 1452184307

19:31

7-Янв-16

Электронная музыка (lossless) ·· (Pop) [WEB] Sia - Cheap Thrills (Single) - 2015, FLAC (tracks), lossless Galfimbul 2559768624 MB 0 0 1450607136

13:25

20-Дек-15

Электронная музыка (mp3) ·· (Electronic, Experimental, Techno, House, Acid) [Label Pack] Farbwechsel - 18 Releases (Route 8, S Olbricht, Wedding Acid Group, Sias, Christian Kroupa, James Booth, Morkebla, AiwA) - 2012-2015, MP3, 320 kbps, Tracks (WEB) Galfimbul 17435302361.62 GB 0 0 1450027127

20:18

13-Дек-15

Электронная музыка (lossless) ·· (Pop, Indie, Chillout) [WEB] Sia - Alive (Remixes) - 2015, FLAC (tracks), lossless Galfimbul 156751155149 MB 0 0 1450026975

20:16

13-Дек-15

Электронная музыка (mp3) ·· (Pop, Indie, Chillout) Sia - Alive (Remixes) - 2015, MP3, 320 kbps Galfimbul 5199526950 MB 0 0 1450012035

16:07

13-Дек-15

Электронная музыка (lossless) ·· (Pop) [WEB] Sia - Bird Set Free (Single) - 2015, FLAC (tracks), lossless Galfimbul 3212796431 MB 0 0 1449308000

12:33

5-Дек-15

Электронная музыка (lossless) ·· (Pop) [WEB] Sia - One Million Bullets (Single) - 2015, FLAC (tracks), lossless Galfimbul 3085560629 MB 0 0 1449307996

12:33

5-Дек-15

Электронная музыка (lossless) ·· (Progressive House, Dance-Pop) [WEB] David Guetta feat. Sia & Fetty Wap - Bang My Head (Remixes EP) - 2015, FLAC (tracks), lossless Galfimbul 263984628252 MB 0 0 1448620421

13:33

27-Ноя-15

Еще никто не оставлял запись к записи скачать торрент Sia . Будь первым!

!Обратная связь