Скачать через торрент музыку Munk feat. Asia Argento - Live Fast! Die Old! бесплатно без регистрации torrent

Если у вас наблюдаются проблемы со скриншотами, переходом по ссылками, скачиванием торрентов - проблемы в блокировщике рекламы AdBlock. #хорошегоДня!


Статистика раздачи
Размер:  87 MB   |    Зарегистрирован:  4 года 6 месяцев   |    .torrent скачан:  26 раз   |   
Раздают:  1  
   
Загрузка...
 
Автор Сообщение

Galfimbul

avatar Galfimbul




Munk feat. Asia Argento - Live Fast! Die Old! (Remix)

Страна: USA
Жанр: Electro, Drum n Bass
Продолжительность: 00:03:08
Год выпуска: 2008 г.

Источник: скачано из сети

Качество: DVDRip
Контейнер: MPG
Видео кодек: MPEG2
Аудио кодек: MPEG Audio
Видео: MPEG Video (PAL) (Version 2), 720*576 (16:9), 3.609 Кбит/сек, в 25.000 кадров/сек.
Аудио: MPEG Audio (Version 1) (Layer 2), 192 Кбит/сек, 48,0 КГц, 2 канала
Общее
Полное имя : D:\collection\utorrent\torrents\MUNK feat. ASIA ARGENTO - Live Fast! Die Old! (Remix) - 2008\Munk feat. Asia Argento - Live Fast! Die Old! (Remix) - 2008.mpg
Формат : MPEG-PS
Размер файла : 87,2 Мбайт
Продолжительность : 3 м. 8 с.
Режим общего битрейта : Переменный
Общий поток : 3879 Кбит/сек

Видео
Идентификатор : 224 (0xE0)
Формат : MPEG Video
Версия формата : Version 2
Профиль формата : Main@Main
Параметр BVOP формата : Да
Параметр матрицы формата : Выборочная
Параметр GOP формата : M=3, N=12
Продолжительность : 3 м. 8 с.
Вид битрейта : Переменный
Битрейт : 3609 Кбит/сек
Ширина : 720 пикселей
Высота : 576 пикселей
Соотношение сторон : 16:9
Частота кадров : 25,000 кадров/сек
Стандарт вещания : PAL
Цветовое пространство : YUV
Субдискретизация насыщенности : 4:2:0
Битовая глубина : 8 бит
Тип развёртки : Чересстрочная
Порядок развёртки : Верхнее поле первое
Метод сжатия : С потерями
Бит/(Пиксели*Кадры) : 0.348
Размер потока : 81,1 Мбайт (93%)

Аудио
Идентификатор : 192 (0xC0)
Формат : MPEG Audio
Версия формата : Version 1
Профиль формата : Layer 2
Продолжительность : 3 м. 8 с.
Вид битрейта : Постоянный
Битрейт : 192 Кбит/сек
Каналы : 2 канала
Частота : 48,0 КГц
Метод сжатия : С потерями
Задержка видео : 2 мс.
Размер потока : 4,30 Мбайт (5%)


Трекер:  [ 19-Мар-2013 18:19 ]

  

Скачать .torrent

Размер .torrent файла 14 KB


Размер: 87 MB
Хэш (hash) релиза: 0814e12c77eec4bfb48b782a15925a0676a26e13

Еще никто не оставлял запись к записи скачать торрент Munk feat. Asia Argento - Live Fast! Die Old! . Будь первым!

!Обратная связь