Скачать через торрент музыку Imogen Heap - Everything In-Between: The Story of Ellipse бесплатно без регистрации torrent

Если у вас наблюдаются проблемы со скриншотами, переходом по ссылками, скачиванием торрентов - проблемы в блокировщике рекламы AdBlock. #хорошегоДня!


Статистика раздачи
Размер:  1.27 GB   |    Зарегистрирован:  4 года 6 месяцев   |    .torrent скачан:  29 раз   |   
Раздают:  1  
   
Загрузка...
 
Автор Сообщение

Galfimbul

avatar Galfimbul


Imogen Heap - Everything In-Between: The Story of Ellipse

Страна: United Kingdom
Жанр: Documentary
Год выпуска: 2010
Продолжительность: 01:30:10

Перевод: отсутствует
Cубтитры: нет
Оригинальная аудиодорожка: английский

Режиссер: Джастин Пёрсл / Justine Pearsall

В ролях: Имоджен Хип (Imogen Heap)

Описание: В фильме, который снимали три года и собирали из 371 часа отснятого материала — в Everything In-Between: The Story Of Ellipse — мы следим за тем, как одна из самых творческих и затейливых артисток вдыхает жизнь в свой самый творческий и затейливый альбом.

После успеха номинированного на «Гремми» альбома Speak For Yourself (2005) британский музыкальный феномен по имени Имоджен Хип весной 2007-го прячется в Мауи (Гавайи), чтобы начать писать третий сольный альбом. В компании только лишь своей видеокамеры певица записывает путешествия, мысли и музыкальные задумки, а после, вернувшись в Великобританию девять недель спустя, понимает, что у неё в руках не только черновики альбома, но и зачин захватывающего фильма о его создании.

Она просит подругу, режиссёра Джастин Пёрсл, продолжать фиксировать всё, что происходило потом: начиная от возвращения в дом, где Имоджен выросла; строительства великолепной студии в её детской; того, как росли и развивались песни; волнительной записи мириад причудливых звуков и шумов — и заканчивая слезами, отчаянием и глубокими ночами попыток собрать всё это вместе в волшебных песнях, звучащих в её голове; от уединения в студии до бешеного ритма съёмок клипов и репетиций для шоу; каждый сантиметр «Эллипса» — здесь.

В сочетании с рассказами самых близких людей и с обезоруживающе искренними комментариями самой Имоджен, Everything In-Between — отчасти документальный фильм, а отчасти откровенный рассказ. Редкая, вдохновляющая и очень личная картина жизни захватывающего альбома и действительно уникального, необычного автора.

Технические характеристики совпадают для всех роликов в раздаче.
Качество видео: DVDRip-AVC
Формат видео: MKV
Видео: x264, 720x480 -> 853x480 (анаморф), 59.880fps, CRF18 (~1400-1650kbps);
Аудио: Dolby AC3, 48000Hz, 192kbps, 2ch, директ с оригинального DVD диска, без перекодирования.

Список дополнительных материалов к фильму:

• Heaps Snaps, слайдшоу с комментариями;
• Don''t Be Silly, подборка забавных эпизодов;
• Justine''s Word, несколько слов от режиссёра фильма.

От релизера:
Собственный анкод. Описание выше переведено с оригинальной аннотации к DVD.
Русских версий аудиодорожек или титров, к сожалению, нет.
В файл пробито оглавление из шести частей.

Это очень вдохновляющий фильм. Он может вызвать разные эмоции: смотреть на то, как человек с глубоким внутренним миром что-то создаёт, бывает и интересно, и больно. Главный герой действительно вызывает на откровенность, при этом оставаясь далёким, другим человеком. Я буду очень рад, если вам понравится раздача фильма, и буду рад ещё больше, если когда-то мы с вами купим настоящий диск.
ВНИМАНИЕ! 18.02.2013 — раздача перезалита!

Изменения:
59.880 кадров в секунду для всех роликов, кроме слайдшоу (очень плавная картинка);
• заменён деинтерлейс-фильтр (очень выросло качество картинки);
• исправлена ошибка аспектации — теперь у кадра точные пропорции;
• уменьшен размер раздачи более чем на 5%;
• уточнена разбивка по главам.
General
Unique ID : 190344509809579765251891281810052786863 (0x8F3304E4FEE9F9B1BE6C0E827122AAAF)
Complete name : D:\movies\Imogen Heap - Everything In-Between - The Story of Ellipse (x264)\Everything In-Between - The Story of Ellipse.mkv
Format : Matroska
Format version : Version 4 / Version 2
File size : 1.17 GiB
Duration : 1h 30mn
Overall bit rate : 1 856 Kbps
Encoded date : UTC 2013-02-17 16:41:39
Writing application : mkvmerge v6.0.0 (''Coming Up For Air'') built on Jan 20 2013 09:52:00
Writing library : libebml v1.3.0 + libmatroska v1.4.0

Video
ID : 1
Format : AVC
Format/Info : Advanced Video Codec
Format profile : High@L4.0
Format settings, CABAC : Yes
Format settings, ReFrames : 16 frames
Codec ID : V_MPEG4/ISO/AVC
Duration : 1h 30mn
Bit rate : 1 627 Kbps
Width : 720 pixels
Height : 480 pixels
Display aspect ratio : 16:9
Original display aspect ratio : 16:9
Frame rate mode : Constant
Frame rate : 59.880 fps
Original frame rate : 59.940 fps
Standard : NTSC
Color space : YUV
Chroma subsampling : 4:2:0
Bit depth : 8 bits
Scan type : Progressive
Bits/(Pixel*Frame) : 0.079
Stream size : 1.02 GiB (88%)
Writing library : x264 core 129 r2245 bc13772
Encoding settings : cabac=1 / ref=16 / deblock=1:0:0 / analyse=0x3:0x113 / me=esa / subme=10 / psy=1 / psy_rd=0.50:0.10 / mixed_ref=1 / me_range=32 / chroma_me=1 / trellis=2 / 8x8dct=1 / cqm=0 / deadzone=21,11 / fast_pskip=0 / chroma_qp_offset=-3 / threads=6 / lookahead_threads=1 / sliced_threads=0 / nr=0 / decimate=1 / interlaced=0 / bluray_compat=0 / constrained_intra=0 / bframes=16 / b_pyramid=2 / b_adapt=2 / b_bias=0 / direct=3 / weightb=1 / open_gop=0 / weightp=2 / keyint=599 / keyint_min=59 / scenecut=40 / intra_refresh=0 / rc_lookahead=120 / rc=crf / mbtree=1 / crf=18.0 / qcomp=0.70 / qpmin=6 / qpmax=48 / qpstep=6 / ip_ratio=1.40 / aq=1:1.00
Language : English
Default : Yes
Forced : No

Audio
ID : 2
Format : AC-3
Format/Info : Audio Coding 3
Mode extension : CM (complete main)
Format settings, Endianness : Big
Codec ID : A_AC3
Duration : 1h 30mn
Bit rate mode : Constant
Bit rate : 192 Kbps
Channel(s) : 2 channels
Channel positions : Front: L R
Sampling rate : 48.0 KHz
Bit depth : 16 bits
Compression mode : Lossy
Stream size : 124 MiB (10%)
Language : English
Default : Yes
Forced : No

Menu
00:01:23.584 : 1. Writing Trip
00:06:11.168 : 2. Studio Build
00:24:51.928 : 3. Recording
01:14:27.010 : 4. Mastering
01:17:15.567 : 5. Artwork
01:20:49.845 : 6. Finale


Трекер:  [ 19-Мар-2013 18:19 ]

  

Скачать .torrent

Размер .torrent файла 13 KB


Размер: 1.27 GB
Хэш (hash) релиза: 3767b45793f8de917433aa568e9cc8f8c29c4d48

Торренты, похожие на Imogen Heap - Everything In-Between: The Story of Ellipse скачать торрент

Форум Название Автор Размер S L Добавлен
Электронная музыка (video) ·· Imogen Heap - Everything In-Between: The Story Of Ellipse [2010, Electronic, Documentary, DVD5] Galfimbul 39032074243.64 GB 0 0 1294835746

15:35

12-Янв-11

Еще никто не оставлял запись к записи скачать торрент Imogen Heap - Everything In-Between: The Story of Ellipse . Будь первым!

!Обратная связь