Скачать через торрент музыку Девочки - Не надо жу-жу - 2002, APE бесплатно без регистрации torrent

Если у вас наблюдаются проблемы со скриншотами, переходом по ссылками, скачиванием торрентов - проблемы в блокировщике рекламы AdBlock. #хорошегоДня!


Статистика раздачи
Размер:  390 MB   |    Зарегистрирован:  6 лет 8 месяцев   |    .torrent скачан:  115 раз   |   
Раздают:  1  
   
Загрузка...
 
Автор Сообщение

Mos

avatar Mos


Девочки
Не надо жу-жу
Жанр: Pop
Год выпуска диска: 2002
Производитель диска: Россия
Аудио кодек: APE
Тип рипа: image+.cue
Битрейт аудио: lossless
Продолжительность: 45:50

Трэклист:

01. Ведь я такая красивая сегодня [03:53]
02. Островок любви [04:23]
03. Я хочу быть птичкой [03:52]
04. Говорила мама (у-ла-ла) [03:37]
05. Игрушка [04:10]
06. Полюбила мальчика [03:48]
07. Никогда [03:29]
08. Муха [03:34]
09. По ночному городу [03:26]
10. Автобус [03:52]
11. Улетай [03:51]
12. Жаль [03:48]
Фото:
- Flash
Клипы:
- Говорила мама (у-ла-ла)
- Ведь я такая красивая сегодня
Качество:
Video: SVQ1 320x240 [Apple Video Media Handler]
Audio: 0x0000 22050Hz mono [Apple Sound Media Handler]
Exact Audio Copy V0.99 prebeta 5 from 4. May 2009

Отчёт EAC об извлечении, выполненном 12. июня 2009, 2:35

Девочки / Не надо жу-жу

Дисковод: TSSTcorpCDDVDW SH-S202J Adapter: 0 ID: 0

Режим чтения : Достоверность
Использование точного потока : Да
Отключение кэша аудио : Да
Использование указателей C2 : Нет

Коррекция смещения при чтении : 6
Способность читать области Lead-in и Lead-out : Нет
Заполнение пропущенных сэмплов тишиной : Да
Удаление блоков с тишиной в начале и конце : Нет
При вычислениях CRC использовались нулевые сэмплы : Да
Интерфейс : Установленный внешний ASPI-интерфейс

Выходной формат : Внутренние WAV-операции
Формат сэмплов : 44.100 Гц; 16 бит; стерео

TOC извлечённого CD

Трек | Старт | Длительность | Начальный сектор | Конечный сектор
---------------------------------------------------------------------
1 | 0:00.00 | 3:53.54 | 0 | 17528
2 | 3:53.54 | 4:23.68 | 17529 | 37321
3 | 8:17.47 | 3:52.37 | 37322 | 54758
4 | 12:10.09 | 3:37.08 | 54759 | 71041
5 | 15:47.17 | 4:10.60 | 71042 | 89851
6 | 19:58.02 | 3:48.13 | 89852 | 106964
7 | 23:46.15 | 3:29.66 | 106965 | 122705
8 | 27:16.06 | 3:34.46 | 122706 | 138801
9 | 30:50.52 | 3:26.61 | 138802 | 154312
10 | 34:17.38 | 3:52.45 | 154313 | 171757
11 | 38:10.08 | 3:51.64 | 171758 | 189146
12 | 42:01.72 | 3:48.19 | 189147 | 206265
13 | 48:22.16 | 12:32.14 | 217666 | 274079

Характеристики диапазона извлечения и сообщения об ошибках

Выбранный диапазон

Имя файла C:\Users\123\Desktop\ТЕМА\Девочки - Не надо жу-жу (2002)\Девочки - Не надо жу-жу.wav

Пиковый уровень 97.3 %
Качество диапазона 100.0 %
CRC теста FEBC2908
CRC копии FEBC2908
Копирование... OK

Ошибок не произошло

AccurateRip: сводка

Трек 1 нет в базе данных
Трек 2 нет в базе данных
Трек 3 нет в базе данных
Трек 4 нет в базе данных
Трек 5 нет в базе данных
Трек 6 нет в базе данных
Трек 7 нет в базе данных
Трек 8 нет в базе данных
Трек 9 нет в базе данных
Трек 10 нет в базе данных
Трек 11 нет в базе данных
Трек 12 нет в базе данных

Ни одного трека нет в базе AccurateRip

Конец отчёта


Трекер:  [ 15-Дек-2010 09:47 ]

  

Скачать .torrent

Размер .torrent файла 16 KB


Размер: 390 MB
Хэш (hash) релиза: e2f42b584a22e216822fdbdcdbef9d0c7005df1b

Еще никто не оставлял запись к записи скачать торрент Девочки - Не надо жу-жу - 2002, APE . Будь первым!

!Обратная связь