Скачать через торрент музыку Лена Перова - Теперь я - 2004, APE бесплатно без регистрации torrent

Если у вас наблюдаются проблемы со скриншотами, переходом по ссылками, скачиванием торрентов - проблемы в блокировщике рекламы AdBlock. #хорошегоДня!


Статистика раздачи
Размер:  303 MB   |    Зарегистрирован:  6 лет 8 месяцев   |    .torrent скачан:  96 раз   |   
Раздают:  1  
   
Загрузка...
 
Автор Сообщение

Mos

avatar Mos


Лена Перова
Теперь я
Жанр: Rock
Год выпуска диска: 2004
Производитель диска: Россия
Аудио кодек: APE
Тип рипа: image+.cue
Битрейт аудио: lossless
Продолжительность: 44:53

Трэклист:

01. Отрава [03:17]
02. Издалека [03:43]
03. Местное время [03:44]
04. Выбор [02:51]
05. ПП (проклятая популярность) [03:33]
06. Нарисуй [04:10]
07. 7 [03:46]
08. Чайка [03:24]
09. Сомненья [04:24]
10. Течение [04:07]
11. Без тебя [04:23]
12. Краски (моему погибшему брату Сергею Супоневу посвящается) [03:24]
Exact Audio Copy V0.99 prebeta 5 from 4. May 2009

Отчёт EAC об извлечении, выполненном 14. июля 2009, 18:32

Лена Перова / Теперь я

Дисковод: TSSTcorpCDDVDW SH-S202J Adapter: 0 ID: 0

Режим чтения : Достоверность
Использование точного потока : Да
Отключение кэша аудио : Да
Использование указателей C2 : Нет

Коррекция смещения при чтении : 6
Способность читать области Lead-in и Lead-out : Нет
Заполнение пропущенных сэмплов тишиной : Да
Удаление блоков с тишиной в начале и конце : Нет
При вычислениях CRC использовались нулевые сэмплы : Да
Интерфейс : Установленный внешний ASPI-интерфейс

Выходной формат : Внутренние WAV-операции
Формат сэмплов : 44.100 Гц; 16 бит; стерео

TOC извлечённого CD

Трек | Старт | Длительность | Начальный сектор | Конечный сектор
---------------------------------------------------------------------
1 | 0:00.00 | 3:17.18 | 0 | 14792
2 | 3:17.18 | 3:43.34 | 14793 | 31551
3 | 7:00.52 | 3:44.58 | 31552 | 48409
4 | 10:45.35 | 2:51.43 | 48410 | 61277
5 | 13:37.03 | 3:33.23 | 61278 | 77275
6 | 17:10.26 | 4:10.70 | 77276 | 96095
7 | 21:21.21 | 3:46.44 | 96096 | 113089
8 | 25:07.65 | 3:24.70 | 113090 | 128459
9 | 28:32.60 | 4:24.62 | 128460 | 148321
10 | 32:57.47 | 4:07.64 | 148322 | 166910
11 | 37:05.36 | 4:23.27 | 166911 | 186662
12 | 41:28.63 | 3:24.20 | 186663 | 201982
13 | 47:25.08 | 0:06.53 | 213383 | 213885

Характеристики диапазона извлечения и сообщения об ошибках

Выбранный диапазон

Имя файла C:\Users\123\Desktop\Lossless\Лена Перова - Теперь я (2004)\Лена Перова - Теперь я.wav

Пиковый уровень 100.0 %
Качество диапазона 100.0 %
CRC теста 84ECEE2A
CRC копии 84ECEE2A
Копирование... OK

Ошибок не произошло

AccurateRip: сводка

Трек 1 точное извлечение (доверие 1) [911668AA]
Трек 2 точное извлечение (доверие 1) [A600DB02]
Трек 3 точное извлечение (доверие 1) [90F22DB7]
Трек 4 точное извлечение (доверие 1) [84E57768]
Трек 5 точное извлечение (доверие 1) [5F149C5F]
Трек 6 точное извлечение (доверие 1) [10DEA00C]
Трек 7 точное извлечение (доверие 1) [2D0B0DED]
Трек 8 точное извлечение (доверие 1) [B470ED07]
Трек 9 точное извлечение (доверие 1) [D44EDD2F]
Трек 10 точное извлечение (доверие 1) [D0260DC6]
Трек 11 точное извлечение (доверие 1) [2B0C4456]
Трек 12 точное извлечение (доверие 1) [0DC71610]

Все треки извлечены точно

Конец отчёта


Трекер:  [ 15-Дек-2010 09:46 ]

  

Скачать .torrent

Размер .torrent файла 12 KB


Размер: 303 MB
Хэш (hash) релиза: 73f612b739197b424cc0285bdac70f34c4574b46

Еще никто не оставлял запись к записи скачать торрент Лена Перова - Теперь я - 2004, APE . Будь первым!

!Обратная связь