Скачать через торрент музыку Michael Jackson - Michael - 2010, FLAC бесплатно без регистрации torrent

Если у вас наблюдаются проблемы со скриншотами, переходом по ссылками, скачиванием торрентов - проблемы в блокировщике рекламы AdBlock. #хорошегоДня!


Статистика раздачи
Размер:  296 MB   |    Зарегистрирован:  6 лет 11 месяцев   |    .torrent скачан:  151 раз   |   
Раздают:  1   Качают:  1  
   
Загрузка...
 
Автор Сообщение

uzi2009

avatar uzi2009


Michael Jackson - Michael

Страна: Australia
Жанр: Pop, R&B
Год выпуска: 2010
Формат: FLAC (*.flac)
Тип рипа: tracks+.cue
Битрейт аудио: lossless
Продолжительность: 00:41:41
Источник (релизер): demonoid (bubanee)
Наличие сканов в содержимом раздачи: да

Трэклист:
01. Hold My Hand (Duet With Akon)
02. Hollywood Tonight
03. Keep Your Head Up
04. (I Like) The Way You Love Me
05. Monster (Duet With 50 Cent)
06. Best Of Joy
07. Breaking News
08. (I Can’t Make It) Another Day (Duet With Lenny Kravitz)
09. Behind The Mask
10. Much Too Soon
Exact Audio Copy V1.0 beta 1 from 15. November 2010

EAC extraction logfile from 9. December 2010, 16:59

Michael Jackson / Michael

Used drive : TSSTcorpCD/DVDW SH-S182F Adapter: 1 ID: 1

Read mode : Secure
Utilize accurate stream : No
Defeat audio cache : Yes
Make use of C2 pointers : No

Read offset correction : 6
Overread into Lead-In and Lead-Out : No
Fill up missing offset samples with silence : Yes
Delete leading and trailing silent blocks : No
Null samples used in CRC calculations : No
Used interface : Native Win32 interface for Win NT & 2000
Gap handling : Appended to previous track

Used output format : User Defined Encoder
Selected bitrate : 768 kBit/s
Quality : High
Add ID3 tag : No
Command line compressor : C:\Program Files\Exact Audio Copy\FLAC\FLAC.EXE
Additional command line options : -8 -V -T "ARTIST=%a" -T "TITLE=%t" -T "ALBUM=%g" -T "DATE=%y" -T "TRACKNUMBER=%n" -T "GENRE=%m" -T "COMMENT=%e" %j--picture="%i"%j %s -o %d

TOC of the extracted CD

Track | Start | Length | Start sector | End sector
---------------------------------------------------------
1 | 0:00.15 | 3:33.34 | 15 | 16023
2 | 3:33.49 | 4:31.10 | 16024 | 36358
3 | 8:04.59 | 4:51.38 | 36359 | 58221
4 | 12:56.22 | 4:34.49 | 58222 | 78820
5 | 17:30.71 | 5:05.74 | 78821 | 101769
6 | 22:36.70 | 3:03.10 | 101770 | 115504
7 | 25:40.05 | 4:14.56 | 115505 | 134610
8 | 29:54.61 | 3:55.21 | 134611 | 152256
9 | 33:50.07 | 5:02.57 | 152257 | 174963
10 | 38:52.64 | 2:48.49 | 174964 | 187612

Track 1

Filename C:\Users\Desktop\Michael Jackson - Michael 2010 -FLAC- [Cov+CD]\01. Hold My Hand (Duet With Akon) - Michael Jackson.wav

Pre-gap length 0:00:02.15

Peak level 100.0 %
Extraction speed 2.4 X
Track quality 100.0 %
Test CRC CA9BD2FA
Copy CRC CA9BD2FA
Track not present in AccurateRip database
Copy OK

Track 2

Filename C:\Users\Desktop\Michael Jackson - Michael 2010 -FLAC- [Cov+CD]\02. Hollywood Tonight - Michael Jackson.wav

Pre-gap length 0:00:01.17

Peak level 100.0 %
Extraction speed 2.6 X
Track quality 100.0 %
Test CRC 8F0359C9
Copy CRC 8F0359C9
Track not present in AccurateRip database
Copy OK

Track 3

Filename C:\Users\Desktop\Michael Jackson - Michael 2010 -FLAC- [Cov+CD]\03. Keep Your Head Up - Michael Jackson.wav

Pre-gap length 0:00:00.56

Peak level 100.0 %
Extraction speed 2.8 X
Track quality 100.0 %
Test CRC 67DA1FE2
Copy CRC 67DA1FE2
Track not present in AccurateRip database
Copy OK

Track 4

Filename C:\Users\Desktop\Michael Jackson - Michael 2010 -FLAC- [Cov+CD]\04. (I Like) The Way You Love Me - Michael Jackson.wav

Pre-gap length 0:00:01.51

Peak level 95.5 %
Extraction speed 3.0 X
Track quality 100.0 %
Test CRC D8749941
Copy CRC D8749941
Track not present in AccurateRip database
Copy OK

Track 5

Filename C:\Users\Desktop\Michael Jackson - Michael 2010 -FLAC- [Cov+CD]\05. Monster (Featuring 50 Cent) - Michael Jackson.wav

Pre-gap length 0:00:00.63

Peak level 100.0 %
Extraction speed 3.1 X
Track quality 100.0 %
Test CRC 58682E74
Copy CRC 58682E74
Track not present in AccurateRip database
Copy OK

Track 6

Filename C:\Users\Desktop\Michael Jackson - Michael 2010 -FLAC- [Cov+CD]\06. Best Of Joy - Michael Jackson.wav

Pre-gap length 0:00:01.48

Peak level 100.0 %
Extraction speed 3.3 X
Track quality 100.0 %
Test CRC AC95E5D7
Copy CRC AC95E5D7
Track not present in AccurateRip database
Copy OK

Track 7

Filename C:\Users\Desktop\Michael Jackson - Michael 2010 -FLAC- [Cov+CD]\07. Breaking News - Michael Jackson.wav

Pre-gap length 0:00:00.61

Peak level 100.0 %
Extraction speed 3.4 X
Track quality 100.0 %
Test CRC 80680930
Copy CRC 80680930
Track not present in AccurateRip database
Copy OK

Track 8

Filename C:\Users\Desktop\Michael Jackson - Michael 2010 -FLAC- [Cov+CD]\08. (I Can't Make It) Another Day (Featuring Lenny Kravitz) - Michael Jackson.wav

Peak level 100.0 %
Extraction speed 3.4 X
Track quality 100.0 %
Test CRC 03CFB43D
Copy CRC 03CFB43D
Track not present in AccurateRip database
Copy OK

Track 9

Filename C:\Users\Desktop\Michael Jackson - Michael 2010 -FLAC- [Cov+CD]\09. Behind The Mask - Michael Jackson.wav

Pre-gap length 0:00:00.62

Peak level 100.0 %
Extraction speed 3.7 X
Track quality 100.0 %
Test CRC 42708CBE
Copy CRC 42708CBE
Track not present in AccurateRip database
Copy OK

Track 10

Filename C:\Users\Desktop\Michael Jackson - Michael 2010 -FLAC- [Cov+CD]\10. Much To Soon - Michael Jackson.wav

Pre-gap length 0:00:01.02

Peak level 84.5 %
Extraction speed 3.6 X
Track quality 100.0 %
Test CRC 6A5878CD
Copy CRC 6A5878CD
Track not present in AccurateRip database
Copy OK

None of the tracks are present in the AccurateRip database

No errors occurred

End of status report
REM GENRE Pop-RnB
REM DATE 2010
REM DISCID 8109C50A
REM COMMENT "ExactAudioCopy v1.0b1"
PERFORMER "Michael Jackson"
TITLE "Michael"
FILE "01. Hold My Hand (Duet With Akon) - Michael Jackson.wav" WAVE
TRACK 01 AUDIO
TITLE "Hold My Hand (Duet With Akon)"
PERFORMER "Michael Jackson"
PREGAP 00:00:15
INDEX 01 00:00:00
TRACK 02 AUDIO
TITLE "Hollywood Tonight"
PERFORMER "Michael Jackson"
INDEX 00 03:32:17
FILE "02. Hollywood Tonight - Michael Jackson.wav" WAVE
INDEX 01 00:00:00
TRACK 03 AUDIO
TITLE "Keep Your Head Up"
PERFORMER "Michael Jackson"
INDEX 00 04:30:29
FILE "03. Keep Your Head Up - Michael Jackson.wav" WAVE
INDEX 01 00:00:00
TRACK 04 AUDIO
TITLE "(I Like) The Way You Love Me"
PERFORMER "Michael Jackson"
INDEX 00 04:49:62
FILE "04. (I Like) The Way You Love Me - Michael Jackson.wav" WAVE
INDEX 01 00:00:00
TRACK 05 AUDIO
TITLE "Monster (Featuring 50 Cent)"
PERFORMER "Michael Jackson"
INDEX 00 04:33:61
FILE "05. Monster (Featuring 50 Cent) - Michael Jackson.wav" WAVE
INDEX 01 00:00:00
TRACK 06 AUDIO
TITLE "Best Of Joy"
PERFORMER "Michael Jackson"
INDEX 00 05:04:26
FILE "06. Best Of Joy - Michael Jackson.wav" WAVE
INDEX 01 00:00:00
TRACK 07 AUDIO
TITLE "Breaking News"
PERFORMER "Michael Jackson"
INDEX 00 03:02:24
FILE "07. Breaking News - Michael Jackson.wav" WAVE
INDEX 01 00:00:00
FILE "08. (I Can't Make It) Another Day (Featuring Lenny Kravitz) - Michael Jackson.wav" WAVE
TRACK 08 AUDIO
TITLE "(I Can't Make It) Another Day (Featuring Lenny Kravitz)"
PERFORMER "Michael Jackson"
INDEX 01 00:00:00
TRACK 09 AUDIO
TITLE "Behind The Mask"
PERFORMER "Michael Jackson"
INDEX 00 03:54:34
FILE "09. Behind The Mask - Michael Jackson.wav" WAVE
INDEX 01 00:00:00
TRACK 10 AUDIO
TITLE "Much To Soon"
PERFORMER "Michael Jackson"
INDEX 00 05:01:55
FILE "10. Much To Soon - Michael Jackson.wav" WAVE
INDEX 01 00:00:00
Доп. информация: Очень ожидаемый альбом недавно законченных записей от Майкла Джексона. Включает в себя песни, которые он совсем недавно создал вместе с треками, и желание Майкла было довести их до конца. Обложка альбома Майкла был создан художником Кадир Нельсон, картины маслом, создана в 2009 году, ведет нас в путешествие через некоторые ключевые моменты и важных людей в жизни Майкла Джексона.

Трекер:  [ 15-Дек-2010 01:35 ]

  

Скачать .torrent

Размер .torrent файла 13 KB


Размер: 296 MB
Хэш (hash) релиза: fb288a9eea037f223ee78c50c6e7ad049e709fff

Еще никто не оставлял запись к записи скачать торрент Michael Jackson - Michael - 2010, FLAC . Будь первым!

!Обратная связь