Скачать через торрент Боевые робофеи бесплатно Аниме Все серии на русском torrent

Если у вас наблюдаются проблемы со скриншотами, переходом по ссылками, скачиванием торрентов - проблемы в блокировщике рекламы AdBlock. #хорошегоДня!


Статистика раздачи
Размер:  3.12 GB   |    Зарегистрирован:  4 года 6 месяцев   |    .torrent скачан:  8 раз   |   
Раздают:  1  
   
Загрузка...
 
Автор Сообщение

Polarnik

avatar Polarnik



Год выпуска: 2012
Страна: Япония
Жанр: приключения, комедия, меха
Продолжительность: 12 эп. по 24 мин.
Перевод:

русские субтитры от mikepayne667 (полные/вспомогательные) [1-3]
русские субтитры от YakuSub Studio (полные/вспомогательные) [4]
переводчик/перевод песен: Nika_Elrik, редактор: Aero, оформление: KeeperRus
Режиссер: Кикути Ясухито
Студия: 8bit
Описание:
В техногенном мире будущего царят мир и благодать, при этом людям служат 15-сантиметровые Синки – искусственные девушки, что обладают индивидуальностью и очень любят своих хозяев. Вообще-то малышки задумывались как боевые роботы, за состязаниями которых следят миллионы зрителей, но помимо этого могут и в доме прибраться, и хозяина разбудить, только с готовкой у них не очень получается. И вот обычный парень по имени Рихито возвращается домой, в Японию, чтобы учиться в старшей школе, а три его Синки - Анн, Айнес и Лене – начинают заниматься разбором вещей. В итоге подруги обнаружили много интересного, а главное – получили прибавление в компании!

Новенькая по имени Хина оказалась из боевой серии «Страф» и сперва думала лишь о том, как подраться, но постепенно тоже вписалась в коллектив. Несмотря на внешний вид, все Синки по природе – бойцы, и в местном сообществе «меха-мусумэ» новоприбывших довольно жестко проверяют – а нормальные ли девчата к ним приехали? Так что каждый день проходит весело – то ужин надо с боем готовить, то хозяина от полиции спасать, то местные на гонки вызовут. В общем, только успевай менять костюм горничной на мобильные доспехи!
© Hollow, World Art
Информационные ссылки: AniDB || World Art || MAL
Качество: BDRip
Энкод: Winter - RG Pantheon
Тип видео: без хардсаба
Формат: mkv
Видео: x264 (Hi10p), 1280x720, ~3000 Kbps, 23.976 fps
Аудио JAP: Vorbis, 48000Hz, ~256 Kbps, 2ch
Аудио RUS 1-4: AC3, 48000Hz, ~192 Kbps, 2ch
одноголосая (муж.) от Ryc99 (Animedia)

двухголосая (муж./жен.) от MIKS & fynnley (OpenDub & RG Lucky Clover) [1-2]
двухголосая (муж./жен.) от Inspector Gadjet & Nika Lenina (AniDub)
двухголосая (муж./жен.) от Allestra & Deer (Anilibria)
01. We Found Something Important
02. The Secret Ingredient Smells Like Gunpowder!
03. Clash! Battle Trike
04. It`s a Race! One Lap Around the Park!
Общее
Уникальный идентификатор : 170556089005892010899427750566701422773 (0x804FE86C39EE7667B266AD750F21D8B5)
Полное имя : Z:\Anime\720p\Busou Shinki [BD] [720p]\[Winter] Busou Shinki 01 [BDrip 1280x720 x264 Vorbis].mkv
Формат : Matroska
Версия формата : Version 2
Размер файла : 666 Мбайт
Продолжительность : 24 м.
Режим общего битрейта : Переменный
Общий поток : 3849 Кбит/сек
Дата кодирования : UTC 2012-12-28 04:10:09
Программа кодирования : mkvmerge v2.9.8 (''C''est le bon'') built on Aug 13 2009 12:49:06
Библиотека кодирования : libebml v0.7.7 + libmatroska v0.8.1

Видео
Идентификатор : 1
Формат : AVC
Формат/Информация : Advanced Video Codec
Профиль формата : High 10@L4.1
Параметр CABAC формата : Да
Параметр ReFrames формата : 9 кадров
Идентификатор кодека : V_MPEG4/ISO/AVC
Продолжительность : 24 м.
Битрейт : 3516 Кбит/сек
Ширина : 1280 пикселей
Высота : 720 пикселей
Соотношение сторон : 16:9
Режим частоты кадров : Постоянный
Частота кадров : 23,976 кадра/сек
Цветовое пространство : YUV
Субдискретизация насыщенности : 4:2:0
Битовая глубина : 10 бит
Тип развёртки : Прогрессивная
Бит/(Пиксели*Кадры) : 0.159
Размер потока : 608 Мбайт (91%)
Библиотека кодирования : x264 core 129 r2230 1cffe9f
Настройки программы : cabac=1 / ref=9 / deblock=1:-2:-2 / analyse=0x3:0x133 / me=umh / subme=9 / psy=1 / psy_rd=0.90:0.00 / mixed_ref=1 / me_range=24 / chroma_me=1 / trellis=2 / 8x8dct=1 / cqm=0 / deadzone=21,11 / fast_pskip=1 / chroma_qp_offset=-2 / threads=6 / lookahead_threads=1 / sliced_threads=0 / nr=0 / decimate=0 / interlaced=0 / bluray_compat=0 / constrained_intra=0 / bframes=8 / b_pyramid=2 / b_adapt=2 / b_bias=0 / direct=1 / weightb=1 / open_gop=0 / weightp=2 / keyint=250 / keyint_min=23 / scenecut=40 / intra_refresh=0 / rc=crf / mbtree=0 / crf=15.7 / qcomp=0.70 / qpmin=9 / qpmax=40 / qpstep=4 / ip_ratio=1.40 / pb_ratio=1.30 / aq=1:0.90
Default : Нет
Forced : Нет

Аудио
Идентификатор : 2
Формат : Vorbis
Параметр Floor формата : 1
Идентификатор кодека : A_VORBIS
Продолжительность : 24 м.
Вид битрейта : Переменный
Битрейт : 256 Кбит/сек
Каналы : 2 канала
Частота : 48,0 КГц
Метод сжатия : С потерями
Размер потока : 44,3 Мбайт (7%)
Библиотека кодирования : libVorbis (Schaufenugget) (20101101 (Schaufenugget))
Язык : Japanese
Default : Да
Forced : Нет




Трекер:  [ 04-Мар-2013 16:01 ]

  

Скачать .torrent

Размер .torrent файла 19 KB


Размер: 3.12 GB
Хэш (hash) релиза: 7de6b5442a91034c64f923c3557c464c4f6d555b
Подписка на обновления:

Торренты, похожие на Боевые робофеи скачать торрент

Форум Название Автор Размер S L Добавлен
Аниме | HD Rips ·· Боевые Шинки / Busou Shinki / Боевые робофеи (Кикути Ясухито) [TV+Special] [Без хардсаба] [12 из 12+1] [RUS(ext)] & [12+1 из 12+1] [JAP+SUB] [2012 г., приключения, комедия, меха, BDRip] [1080p] Polarnik 2902467385227.03 GB 0 0 1380034206

17:50

24-Сен-13

Аниме | HD Rips ·· Боевые Шинки / Busou Shinki / Боевые робофеи (Кикути Ясухито) [TV] [12 из 12] [Без хардсаба] [RUS(ext), JAP+SUB] [2012 г., приключения, комедия, меха, BDRip] [1080p] Polarnik 2630769480824.5 GB 0 0 1371394872

18:01

16-Июн-13

Аниме | HD Rips ·· Боевые робофеи: лунный ангел / Шинки - боевой Лунный Ангел / Busou Shinki Moon Angel [ONA] [10 из 10] [Без хардсаба] [RUS(ext), JAP+SUB] [2011 г., приключения, фантастика, меха, BDRip] [720p] _N_ 15122304761.41 GB 0 0 1350476940

15:29

17-Окт-12

Аниме | HD Rips ·· Боевые робофеи / Боевые Шинки / Busou Shinki [TV] [1 из 13] [Без хардсаба] [RUS(ext), JAP+SUB] [2012 г., приключения, фантастика, меха, HDTVRip] [720p] Polarnik 458360777437 MB 0 0 1349613960

15:46

7-Окт-12

Аниме | HD Rips ·· Боевые робофеи / Busou Shinki (Кикути Ясухито) [TV+Special] [без хардсаба] [12+1 из 12+1] [JAP+SUB] & [12+0 из 12+1] [RUS(ext)] [2012 г., приключения, комедия, меха, BDRip] [720p] Polarnik 101907853379.49 GB 0 0 1379883516

23:58

22-Сен-13

Еще никто не оставлял запись к записи скачать торрент Боевые робофеи . Будь первым!

!Обратная связь