Скачать через торрент музыку Сергей Зверев - Звезда в шоке...!!! - 2007, APE бесплатно без регистрации torrent

Если у вас наблюдаются проблемы со скриншотами, переходом по ссылками, скачиванием торрентов - проблемы в блокировщике рекламы AdBlock. #хорошегоДня!


Статистика раздачи
Размер:  499 MB   |    Зарегистрирован:  6 лет 10 месяцев   |    .torrent скачан:  91 раз   |   
Раздают:  1  
   
Загрузка...
 
Автор Сообщение

Fent

avatar Fent


Сергей Зверев - Звезда в шоке...!!!


Жанр: Pop
Год выпуска диска: 2007
Производитель диска: Россия
Аудио кодек: APE
Тип рипа: image+.cue
Битрейт аудио: lossless
Продолжительность: 74:10:50

Трэклист:
1. Алла
2. Ради тебя!
3. Я люблю тебя до слез
4. Больше гламура
5. Цыганочка
6. Милый
7. Небеса
8. Красота
9. 5 шагов
10. Так далеко
11. ДГ
12. Целую пальчики
13. Никогда
14. Искренне Ваш
15. Я буду лаской
16. Океан
17. Все ушли в осень
18. Новогодний хоровод
19. Цыганочка
20. Алла (Remix, Arr. Dj Дан)
21. Ради тебя! (Remix, Arr. Dj Дан)
22. Небеса (Remix)
Exact Audio Copy V0.99 prebeta 4 from 23. January 2008

Отчёт EAC об извлечении, выполненном 22. января 2009, 0:20

Сергей Зверев / Звезда в шоке...!!!

Дисковод: Optiarc DVD RW AD-5200S Adapter: 1 ID: 1

Режим чтения : Достоверность
Использование точного потока : Да
Отключение кэша аудио : Да
Использование указателей C2 : Нет

Коррекция смещения при чтении : 48
Способность читать области Lead-in и Lead-out : Нет
Заполнение пропущенных сэмплов тишиной : Да
Удаление блоков с тишиной в начале и конце : Нет
При вычислениях CRC использовались нулевые сэмплы : Да
Интерфейс : Установленный внешний ASPI-интерфейс

Выходной формат : Внутренние WAV-операции
Формат сэмплов : 44.100 Гц; 16 бит; стерео

TOC извлечённого CD

Трек | Старт | Длительность | Начальный сектор | Конечный сектор
---------------------------------------------------------------------
1 | 0:00.00 | 3:30.12 | 0 | 15761
2 | 3:30.12 | 5:03.58 | 15762 | 38544
3 | 8:33.70 | 1:36.14 | 38545 | 45758
4 | 10:10.09 | 3:36.44 | 45759 | 62002
5 | 13:46.53 | 4:11.58 | 62003 | 80885
6 | 17:58.36 | 3:04.30 | 80886 | 94715
7 | 21:02.66 | 4:39.16 | 94716 | 115656
8 | 25:42.07 | 3:25.35 | 115657 | 131066
9 | 29:07.42 | 1:17.07 | 131067 | 136848
10 | 30:24.49 | 1:43.33 | 136849 | 144606
11 | 32:08.07 | 3:06.53 | 144607 | 158609
12 | 35:14.60 | 1:38.03 | 158610 | 165962
13 | 36:52.63 | 4:28.50 | 165963 | 186112
14 | 41:21.38 | 3:33.59 | 186113 | 202146
15 | 44:55.22 | 1:30.41 | 202147 | 208937
16 | 46:25.63 | 1:43.65 | 208938 | 216727
17 | 48:09.53 | 1:57.52 | 216728 | 225554
18 | 50:07.30 | 3:49.41 | 225555 | 242770
19 | 53:56.71 | 3:50.05 | 242771 | 260025
20 | 57:47.01 | 6:11.41 | 260026 | 287891
21 | 63:58.42 | 6:42.46 | 287892 | 318087
22 | 70:41.13 | 4:10.48 | 318088 | 336885

Характеристики диапазона извлечения и сообщения об ошибках

Выбранный диапазон

Имя файла D:\torrents\Зверев_Звезда_в_шоке_[http://рутраскер]\Сергей Зверев - Звезда в шоке...!!!.wav

Пиковый уровень 96.6 %
Качество диапазона 99.9 %
CRC копии 4BB700E5
Копирование... OK

Ошибок не произошло

Конец отчёта


Трекер:  [ 14-Дек-2010 17:15 ]

  

Скачать .torrent

Размер .torrent файла 20 KB


Размер: 499 MB
Хэш (hash) релиза: 00e0de82cdb2f763831adf10cd8f54ad5889b381

Еще никто не оставлял запись к записи скачать торрент Сергей Зверев - Звезда в шоке...!!! - 2007, APE . Будь первым!

!Обратная связь