Скачать через торрент музыку Час Пик 2 Rush Hour 2 - 2001, FLAC бесплатно без регистрации torrent

Если у вас наблюдаются проблемы со скриншотами, переходом по ссылками, скачиванием торрентов - проблемы в блокировщике рекламы AdBlock. #хорошегоДня!


Статистика раздачи
Размер:  461 MB   |    Зарегистрирован:  6 лет 11 месяцев   |    .torrent скачан:  47 раз   |   
Раздают:  1  
   
Загрузка...
 
Автор Сообщение

AqvaGen


Час Пик 2 / Rush Hour 2

Название альбома: Def Jam's Rush Hour 2 Soundtrack
Жанр: Soundtrack
Год выпуска диска/фильма: 2001
Страна-производитель диска: Made in Germany by Universal M & L
Издатель (лейбл): The Island Def Jam Music Group
Номер по каталогу: 586 216-2

Аудио кодек: FLAC (*.flac)
Тип рипа: image+.cue
Битрейт аудио: lossless
Продолжительность: 01:06:44

Наличие сканов в содержимом раздачи: да / 300 dpi

Треклист:
01. Ludacris feat. Nate Dogg / Area Codes [0:03:43.05]
02. Montell Jordan / Mine, Mine, Mine [0:03:41.30]
03. Method Man & T.R. / Party & Bulls*** [0:03:11.52]
04. Kandice Love / No [0:04:24.38]
05. Keith Murray / He's Back [0:03:48.55]
06. Dru Hill presents Jazz / Love Again [0:04:11.10]
07. Musiq & Redman / Keep It Real (Tell Me) [0:04:34.72]
08. LL Cool J feat. Mashonda / Crazy Girl [0:03:57.50]
09. Lovher / How It's Gonna Be [0:03:40.05]
10. WC feat. Nate Dogg / Paper Trippin' [0:04:03.73]
11. Christina Milian / You Make Me Laugh [0:03:37.35]
12. Say Yes / Mercedes Benz [0:03:51.30]
13. Hikaru Utada feat. Foxy Brown / Blow My Whistle [0:04:06.60]
14. Benzino feat. Scarface & Snoop Dogg / Figadoh [0:04:03.07]
15. 3rd Storee / I'm Sorry [0:05:06.15]
16. FT (F** That) / Brollic [0:02:29.50]
17. Macy Gray & Slick Rick / The World Is Yours [0:04:12.68]
 
Exact Audio Copy V0.99 prebeta 5 from 4. May 2009

EAC extraction logfile from 8. August 2010, 16:51

Various / Def Jam's Rush Hour 2

Used drive : SlimtypeBD E DS4E1S Adapter: 0 ID: 1

Read mode : SecureUtilize accurate stream : YesDefeat audio cache : YesMake use of C2 pointers : No

Read offset correction : 6Overread into Lead-In and Lead-Out : NoFill up missing offset samples with silence : YesDelete leading and trailing silent blocks : NoNull samples used in CRC calculations : YesUsed interface : Native Win32 interface for Win NT & 2000

Used output format : User Defined EncoderSelected bitrate : 768 kBit/sQuality : HighAdd ID3 tag : NoCommand line compressor : C:\Program Files (x86)\Exact Audio Copy\Flac\flac.exeAdditional command line options : -8 -V -T "DATE=%y" -T "GENRE=%m" %s

TOC of the extracted CD

Track | Start | Length | Start sector | End sector --------------------------------------------------------- 1 | 0:00.00 | 3:43.05 | 0 | 16729 2 | 3:43.05 | 3:41.30 | 16730 | 33334 3 | 7:24.35 | 3:11.52 | 33335 | 47711 4 | 10:36.12 | 4:24.38 | 47712 | 67549 5 | 15:00.50 | 3:48.55 | 67550 | 84704 6 | 18:49.30 | 4:11.10 | 84705 | 103539 7 | 23:00.40 | 4:34.72 | 103540 | 124161 8 | 27:35.37 | 3:57.50 | 124162 | 141986 9 | 31:33.12 | 3:40.05 | 141987 | 158491 10 | 35:13.17 | 4:03.73 | 158492 | 176789 11 | 39:17.15 | 3:37.35 | 176790 | 193099 12 | 42:54.50 | 3:51.30 | 193100 | 210454 13 | 46:46.05 | 4:06.60 | 210455 | 228964 14 | 50:52.65 | 4:03.07 | 228965 | 247196 15 | 54:55.72 | 5:06.15 | 247197 | 270161 16 | 60:02.12 | 2:29.50 | 270162 | 281386 17 | 62:31.62 | 4:12.68 | 281387 | 300354

Range status and errors

Selected range

Filename C:\Users\Big S\Desktop\Rip's\VA - Def Jam's Rush Hour 2 (2001) Lossless\VA - Def Jam's Rush Hour 2.wav

Peak level 100.0 % Range quality 100.0 % Test CRC 0F4A5572 Copy CRC 0F4A5572 Copy OK

No errors occurred

AccurateRip summary

Track 1 accurately ripped (confidence 3) [F9FBF661]Track 2 accurately ripped (confidence 3) [3E77D047]Track 3 accurately ripped (confidence 3) [E6A243EA]Track 4 accurately ripped (confidence 3) [B3813231]Track 5 accurately ripped (confidence 3) [4B597096]Track 6 accurately ripped (confidence 3) [9814E0F3]Track 7 accurately ripped (confidence 3) [5F82BE42]Track 8 accurately ripped (confidence 3) [5C38666D]Track 9 accurately ripped (confidence 3) [08FF0BD9]Track 10 accurately ripped (confidence 3) [D1ADE37F]Track 11 accurately ripped (confidence 3) [0927C4CF]Track 12 accurately ripped (confidence 3) [D16EBD74]Track 13 accurately ripped (confidence 3) [32ED1B7E]Track 14 accurately ripped (confidence 3) [4198D28B]Track 15 accurately ripped (confidence 3) [E7C92D0B]Track 16 accurately ripped (confidence 3) [D2A525F7]Track 17 accurately ripped (confidence 3) [B65C4BA6]

All tracks accurately ripped

End of status report


Трекер:  [ 20-Дек-2010 09:38 ]

  

Скачать .torrent

Размер .torrent файла 19 KB


Размер: 461 MB
Хэш (hash) релиза: 344c33c23dd42c5837ec05924ff115abe1dfc79b

bot

Топик был перенесен в форум Саундтреки к фильмам и мультфильмам (lossless)

Перенес AqvaGen

Хотите добавить комментарий к записи скачать торрент Час Пик 2 Rush Hour 2 - 2001, FLAC

!Обратная связь