Скачать через торрент музыку Vampires | Вампиры бесплатно без регистрации torrent

Если у вас наблюдаются проблемы со скриншотами, переходом по ссылками, скачиванием торрентов - проблемы в блокировщике рекламы AdBlock. #хорошегоДня!


Статистика раздачи
Размер:  260 MB   |    Зарегистрирован:  6 лет 9 месяцев   |    .torrent скачан:  51 раз   |   
Раздают:  1  
   
Загрузка...
 
Автор Сообщение

AqvaGen


Vampires | Вампиры
Жанр: Score
Год выпуска диска: 1998
Производитель диска: USA
Аудио кодек: FLAC
Тип рипа: tracks+.cue
Битрейт аудио: lossless
Продолжительность: 46:24

Трэклист:

01. Teaser (Performed by Stone)
02. Slayers
03. New Mexico
04. Headless Priest
05. Motel Sex
06. Night Attack
07. Santiago
08. Stake and Burn
09. Valek's Portrait
10. Sunrise Death
11. Valek Attacks
12. Vampire Vision
13. Farewell Slayer
14. Cruel Highway
15. Katrina Bites
16. Padre's Wood

Exact Audio Copy V0.99 prebeta 5 from 4. May 2009

EAC extraction logfile from 11. November 2009, 22:02

John Carpenter / Vampires

Used drive : Optiarc DVD RW AD-7170A Adapter: 0 ID: 0

Read mode : Secure
Utilize accurate stream : Yes
Defeat audio cache : Yes
Make use of C2 pointers : No

Read offset correction : 48
Overread into Lead-In and Lead-Out : No
Fill up missing offset samples with silence : Yes
Delete leading and trailing silent blocks : No
Null samples used in CRC calculations : Yes
Used interface : Native Win32 interface for Win NT & 2000
Gap handling : Appended to previous track

Used output format : User Defined Encoder
Selected bitrate : 320 kBit/s
Quality : High
Add ID3 tag : No
Command line compressor : C:\Program Files\Exact Audio Copy\Flac\flac.exe
Additional command line options : -8 -V -T "ARTIST=%a" -T "TITLE=%t" -T "ALBUM=%g" -T "DATE=%y" -T "TRACKNUMBER=%n" -T "GENRE=%m" -T "COMMENT=EAC FLAC -8" %s

TOC of the extracted CD

Track | Start | Length | Start sector | End sector
---------------------------------------------------------
1 | 0:00.00 | 3:15.00 | 0 | 14624
2 | 3:15.00 | 2:39.27 | 14625 | 26576
3 | 5:54.27 | 2:21.70 | 26577 | 37221
4 | 8:16.22 | 2:51.18 | 37222 | 50064
5 | 11:07.40 | 4:29.52 | 50065 | 70291
6 | 15:37.17 | 3:19.53 | 70292 | 85269
7 | 18:56.70 | 2:21.15 | 85270 | 95859
8 | 21:18.10 | 3:43.00 | 95860 | 112584
9 | 25:01.10 | 1:19.15 | 112585 | 118524
10 | 26:20.25 | 2:03.67 | 118525 | 127816
11 | 28:24.17 | 3:34.18 | 127817 | 143884
12 | 31:58.35 | 1:46.42 | 143885 | 151876
13 | 33:45.02 | 2:11.58 | 151877 | 161759
14 | 35:56.60 | 3:00.07 | 161760 | 175266
15 | 38:56.67 | 1:51.60 | 175267 | 183651
16 | 40:48.52 | 5:36.10 | 183652 | 208861

Track 1

Filename E:\DownLoad\SoundTrack_Vampires\ 01. John Carpenter – Teaser (Performed by Stone).wav

Pre-gap length 0:00:02.00

Peak level 84.1 %
Track quality 100.0 %
Test CRC 470F758E
Copy CRC 470F758E
Copy OK

Track 2

Filename E:\DownLoad\SoundTrack_Vampires\ 02. John Carpenter – Slayers.wav

Peak level 100.0 %
Track quality 100.0 %
Test CRC FD1D88E9
Copy CRC FD1D88E9
Copy OK

Track 3

Filename E:\DownLoad\SoundTrack_Vampires\ 03. John Carpenter – New Mexico.wav

Peak level 87.1 %
Track quality 100.0 %
Test CRC BF3E7CBF
Copy CRC BF3E7CBF
Copy OK

Track 4

Filename E:\DownLoad\SoundTrack_Vampires\ 04. John Carpenter – Headless Priest.wav

Peak level 80.9 %
Track quality 100.0 %
Test CRC DEB72C70
Copy CRC DEB72C70
Copy OK

Track 5

Filename E:\DownLoad\SoundTrack_Vampires\ 05. John Carpenter – Motel Sex.wav

Peak level 89.1 %
Track quality 100.0 %
Test CRC A0EE48C3
Copy CRC A0EE48C3
Copy OK

Track 6

Filename E:\DownLoad\SoundTrack_Vampires\ 06. John Carpenter – Night Attack.wav

Peak level 100.0 %
Track quality 100.0 %
Test CRC 3E3A946B
Copy CRC 3E3A946B
Copy OK

Track 7

Filename E:\DownLoad\SoundTrack_Vampires\ 07. John Carpenter – Santiago.wav

Peak level 54.1 %
Track quality 100.0 %
Test CRC F814209E
Copy CRC F814209E
Copy OK

Track 8

Filename E:\DownLoad\SoundTrack_Vampires\ 08. John Carpenter – Stake and Burn.wav

Peak level 100.0 %
Track quality 100.0 %
Test CRC 4442AA62
Copy CRC 4442AA62
Copy OK

Track 9

Filename E:\DownLoad\SoundTrack_Vampires\ 09. John Carpenter – Valek's Portrait.wav

Peak level 79.3 %
Track quality 100.0 %
Test CRC 6285D483
Copy CRC 6285D483
Copy OK

Track 10

Filename E:\DownLoad\SoundTrack_Vampires\ 10. John Carpenter – Sunrise Death.wav

Peak level 98.2 %
Track quality 99.8 %
Test CRC 79FC619D
Copy CRC 79FC619D
Copy OK

Track 11

Filename E:\DownLoad\SoundTrack_Vampires\ 11. John Carpenter – Valek Attacks.wav

Peak level 100.0 %
Track quality 100.0 %
Test CRC 3A0BED8A
Copy CRC 3A0BED8A
Copy OK

Track 12

Filename E:\DownLoad\SoundTrack_Vampires\ 12. John Carpenter – Vampire Vision.wav

Peak level 98.7 %
Track quality 99.9 %
Test CRC 7042D9F6
Copy CRC 7042D9F6
Copy OK

Track 13

Filename E:\DownLoad\SoundTrack_Vampires\ 13. John Carpenter – Farewell Slayer.wav

Peak level 77.1 %
Track quality 100.0 %
Test CRC 7C0DFCF6
Copy CRC 7C0DFCF6
Copy OK

Track 14

Filename E:\DownLoad\SoundTrack_Vampires\ 14. John Carpenter – Cruel Highway.wav

Peak level 88.1 %
Track quality 100.0 %
Test CRC 3654943F
Copy CRC 3654943F
Copy OK

Track 15

Filename E:\DownLoad\SoundTrack_Vampires\ 15. John Carpenter – Katrina Bites.wav

Peak level 100.0 %
Track quality 100.0 %
Test CRC 3D7B8015
Copy CRC 3D7B8015
Copy OK

Track 16

Filename E:\DownLoad\SoundTrack_Vampires\ 16. John Carpenter – Padre's Wood.wav

Peak level 89.1 %
Track quality 100.0 %
Test CRC AF3CFAFC
Copy CRC AF3CFAFC
Copy OK

No errors occurred

End of status report


Трекер:  [ 20-Дек-2010 12:20 ]

  

Скачать .torrent

Размер .torrent файла 12 KB


Размер: 260 MB
Хэш (hash) релиза: 2c76ee86c28bc74c671dca52e23a6cb33f67ff25

Торренты, похожие на Vampires | Вампиры скачать торрент

Форум Название Автор Размер S L Добавлен
Саундтреки ·· (Score) Две сиротки-вампирши / Сиротки-вампиры // Les Deux Orphelines Vampires / Two Orphan Vampires (by Philippe D'Aram & Ars Antigua) - 1997, FLAC (tracks), lossless Galfimbul 179928416172 MB 0 0 1356622980

18:43

27-Дек-12

Саундтреки к аниме (mp3) ·· (OST) Рыцарь Вампир / Vampire Knight / Vampire Knight Guilty Full Music Collection - 2008, MP3 (tracks), 320 kbps Комедиант 462479133441 MB 0 0 1295945555

11:52

25-Янв-11

Саундтреки к фильмам и мультфильмам (mp3) ·· (Score) Ребенок Розмари и Бал вампиров / Rosemary's Baby & Dance Of The Vampires (The Fearless Vampire Killers), Krzysztof Komeda - 1967,1968, MP3, 320 kbps Phoenix 150432848143 MB 0 0 1292268209

22:23

13-Дек-10

Саундтреки к фильмам и мультфильмам (mp3) ·· [Score / Unofficial] Баффи истребительница вампиров, сезон 4 / Buffy the vampire slayer, Season 4 (Christophe Beck) - 2002, MP3, 128-320 kbps Galfimbul 119207475114 MB 0 0 1506339891

14:44

25-Сен-17

Саундтреки к аниме (mp3) ·· (Anime OST) Принцесса-вампир Мию / Vampire Princess Miyu- 1999, MP3 (tracks), VBR 192-320 kbps Galfimbul 151051060144 MB 0 0 1506333010

12:50

25-Сен-17

Саундтреки к фильмам и мультфильмам (mp3) ·· [Soundtrack / Unofficial] Дневники Вампира - сезон 1-6 / The Vampire Diaries - Season 1-6 - 2009-2015, MP3 (tracks), 128-320 kbps Galfimbul 57210332025.33 GB 0 0 1466263474

18:24

18-Июн-16

Саундтреки к фильмам и мультфильмам (mp3) ·· [Soundtrack / Unofficial] Дневники Вампира - сезон 1-6 / The Vampire Diaries - Season 1-6 - 2009-2015, MP3 (tracks), 128-320 kbps Galfimbul 53425781854.98 GB 0 0 1464516172

13:02

29-Май-16

Саундтреки к фильмам и мультфильмам (mp3) ·· [Soundtrack / Unofficial] Дневники Вампира - сезон 1-6 / The Vampire Diaries - Season 1-6 - 2009-2015, MP3 (tracks), 128-320 kbps Galfimbul 50469948574.7 GB 0 0 1439267723

07:35

11-Авг-15

Саундтреки к фильмам и мультфильмам (lossless) ·· (Soundtrack) Академия вампиров / Vampire Academy - 2014, FLAC (tracks+.cue), lossless Galfimbul 314992854300 MB 0 0 1420125300

18:15

1-Янв-15

Саундтреки к фильмам и мультфильмам (lossless) ·· (Score) Капитан Кронос: Охотник на вампиров / Captain Kronos: Vampire Hunter (by Laurie Johnson) - 2007 (1974), FLAC (tracks), lossless Galfimbul 260542130248 MB 0 0 1368196206

17:30

10-Май-13

Саундтреки к фильмам и мультфильмам (lossless) ·· (Score) Вампиры-любовники / The Vampire Lovers (by Harry Robinson) - 2000 (1970), FLAC (tracks), lossless Galfimbul 246642975235 MB 0 0 1368176766

12:06

10-Май-13

Саундтреки ·· (Score) Президент Линкольн: Охотник на вампиров / Abraham Lincoln: Vampire Hunter (by Henry Jackman) - 2012, MP3, 320 kbps Galfimbul 111388074106 MB 0 0 1339792260

23:31

15-Июн-12

Саундтреки ·· (Score) Вампиры-любовники / The Vampire Lovers (by Harry Robinson) - 2000 (1970), MP3, 320 kbps Umakiro 149141493142 MB 0 0 1335792000

16:20

30-Апр-12

Саундтреки к фильмам и мультфильмам (lossless) ·· (Score) История одного вампира / The Vampire's Assistant (by Stephen Trask) - 2009 [FLAC (tracks+.cue) lossless] AqvaGen 383536494366 MB 0 0 1292270348

22:59

13-Дек-10

Саундтреки к фильмам и мультфильмам (lossless) ·· (Score, Soundtrack, Musical) Баффи: Истребительница вампиров + Ангел / Buffy: The Vampire Slayer (5 CD) + Angel: Live Fast, Die Never (1 CD) (Christophe Beck, Robert J. Kral, & VA) - 1999-2008, FLAC (tracks+.cue), lossless AqvaGen 22688592012.11 GB 0 0 1292268961

22:36

13-Дек-10

Саундтреки к фильмам и мультфильмам (lossless) ·· (Soundtrack) Дневники вампира / The Vampire Diaries - 2010, FLAC (tracks+.cue), lossless AqvaGen 445809677425 MB 0 0 1292268483

22:28

13-Дек-10

Саундтреки к фильмам и мультфильмам (mp3) ·· (Score) Интервью с вампиром / Interview With The Vampire (Elliot Goldenthal) - 1994, MP3, 320 kbps Phoenix 118299958113 MB 0 0 1292268190

22:23

13-Дек-10

Саундтреки к фильмам и мультфильмам (mp3) ·· (Score) История одного вампира / The Vampire's Assistant (by Stephen Trask) - 2009, MP3, 320 kbps Mos 170590017163 MB 0 0 1292268157

22:22

13-Дек-10

Саундтреки к фильмам и мультфильмам (mp3) ·· (Score) Interview With The Vampire (Complete) 2CD / Интервью с вампиром (Elliot Goldenthal) - 2007 (1994), MP3 (tracks), 320 kbps Galfimbul 231764586221 MB 0 0 1292266055

21:47

13-Дек-10

bot

Топик был перенесен в форум Саундтреки к фильмам и мультфильмам (lossless)

Перенес AqvaGen

Хотите добавить комментарий к записи скачать торрент Vampires | Вампиры

!Обратная связь