Скачать через торрент музыку John Williams - Indiana Jones - The Soundtracks Collection - 2008, бесплатно без регистрации torrent

Если у вас наблюдаются проблемы со скриншотами, переходом по ссылками, скачиванием торрентов - проблемы в блокировщике рекламы AdBlock. #хорошегоДня!


Статистика раздачи
Размер:  1.92 GB   |    Зарегистрирован:  6 лет 11 месяцев   |    .torrent скачан:  52 раза   |   
Раздают:  1  
   
Загрузка...
 
Автор Сообщение

Mos

avatar Mos


John Williams - Indiana Jones - The Soundtracks Collection
Лейбл: Concord Records
Каталожный номер: CRE-31000-02
Жанр: Classical, Stage & Screen
Стиль: Soundtrack, Score
Год выпуска диска: 2008
Производитель диска: UK, Europe & US
Аудио кодек: FLAC
Тип рипа: tracks+.cue
Битрейт аудио: lossless
Трэклист:
1-01 In The Jungle (4:13)
1-02 The Idol Temple (3:55)
1-03 Escape From The Temple (1:33)
1-04 Flight From Peru (2:23)
1-05 Washington Men/Indy's Home (1:05)
1-06 A Thought For Marion/To Nepal (2:11)
1-07 The Medallion (2:54)
1-08 Flight To Cairo (1:30)
1-09 The Basket Game (5:02)
1-10 Bad Dates (1:13)
1-11 The Map Room: Dawn (3:52)
1-12 Reunion In The Tent/Searching For The Well (4:01)
1-13 The Well Of The Souls (5:28)
1-14 Indy Rides The Statue (1:08)
1-15 The Fist Fight/The Flying Wing (4:36)
1-16 Desert Chase (7:32)
1-17 Marion's Theme/The Crate (2:09)
1-18 The German Sub (1:22)
1-19 Ride To The Nazi Hideout (3:19)
1-20 Indy Follows The Ark (1:40)
1-21 The Miracle Of The Ark (6:07)
1-22 Washington Ending & Raiders March (6:51)
2-01 Anything Goes (2:51)
2-02 Indy Negotiates (3:58)
2-03 The Nightclub Brawl (2:31)
2-04 Fast Streets Of Shanghai (3:39)
2-05 Map/Out Of Fuel (3:22)
2-06 Slalom On Mt. Humol (2:24)
2-07 Short Round's Theme (2:28)
2-08 The Scroll/To Pankot Palace (4:26)
2-09 Nocturnal Activities (5:54)
2-10 Bug Tunnel/Death Trap (3:30)
2-11 Approaching The Stones (2:39)
2-12 Children In Chains (2:41)
2-13 The Temple Of Doom (2:58)
2-14 Short Round Escapes (2:21)
2-15 Saving Willie (3:35)
2-16 Slave Children's Crusade (3:23)
2-17 Short Round Helps (4:49)
2-18 The Mine Car Chase (3:40)
2-19 Water! (1:55)
2-20 The Sword Trick (1:04)
2-21 The Broken Bridge/British Relief (4:46)
2-22 End Credits (6:19)
3-01 Indy's Very First Adventure (12:00)
3-02 The Boat Scene (2:22)
3-03 X Marks The Spot (3:11)
3-04 Ah, Rats!!! (3:40)
3-05 Escape From Venice (4:22)
3-06 Journey To Austria (0:38)
3-07 Father And Son Reunited (1:48)
3-08 The Austrian Way (2:39)
3-09 Scherzo For Motorcycle And Orchestra (3:53)
3-10 Alarm! (3:06)
3-11 No Ticket (2:45)
3-12 Keeping Up With The Joneses (3:37)
3-13 Brother Of The Cruciform Sword (1:56)
3-14 On The Tank (3:38)
3-15 Belly Of The Steel Beast (5:28)
3-16 The Canyon Of The Crescent Moon (4:17)
3-17 The Penitent Man Will Pass (3:23)
3-18 The Keeper Of The Grail (3:23)
3-19 Finale & End Credits (10:39)
4-01 The Raiders March (5:05)
4-02 Call Of The Crystal (3:49)
4-03 The Adventures Of Mutt (3:12)
4-04 Irina's Theme (2:26)
4-05 The Snake Pit (3:15)
4-06 The Spell Of The Skull (4:24)
4-07 The Journey To Akator (3:07)
4-08 A Whirl Through Academe (3:33)
4-09 "Return" (3:11)
4-10 The Jungle Chase (4:22)
4-11 Orellana's Cradle (4:22)
4-12 Grave Robbers (2:28)
4-13 Hidden Treasure And The City Of Gold (5:13)
4-14 Secret Doors And Scorpions (2:17)
4-15 Oxley's Dilemma (4:45)
4-16 Ants! (4:14)
4-17 Temple Ruins And The Secret Revealed (5:51)
4-18 The Departure (2:26)
4-19 Finale (9:19)
5-01 Raiders March (2:30)
5-02 No Artist Interviews With John Williams, Steven Spielberg And George Lucas, Hosted By Laurent Bouzereau (17:57)
5-03 Uncovering The Ark (5:32)
5-04 Indy And The Villagers (3:53)
5-05 The Secret Passage (3:31)
5-06 Father's Study (2:27)
5-07 Marcus Is Captured/To Berlin (1:55)
5-08 To The Blimp (2:03)
5-09 The Blimp Turns Around (1:29)
5-10 Death Of Kazim (2:26)
5-11 Wrong Choice, Right Choice (4:36)
5-12 Return To The Village/Raiders March (3:27)
Доп. информация:
 
Exact Audio Copy V0.99 prebeta 4 from 23. January 2008

EAC extraction logfile from 30. January 2009, 22:38

John Williams / Raiders of the Lost Ark

Used drive : PHILIPS DROM6216 Adapter: 1 ID: 0

Read mode : SecureUtilize accurate stream : YesDefeat audio cache : YesMake use of C2 pointers : No

Read offset correction : 738Overread into Lead-In and Lead-Out : NoFill up missing offset samples with silence : YesDelete leading and trailing silent blocks : NoNull samples used in CRC calculations : YesUsed interface : Installed external ASPI interfaceGap handling : Appended to previous track

Used output format : User Defined EncoderSelected bitrate : 128 kBit/sQuality : HighAdd ID3 tag : NoCommand line compressor : C:\Archivos de programa\Exact Audio Copy\Flac\flac.exeAdditional command line options : -V -8 -T "artist=%a" -T "title=%t" -T "album=%g" -T "date=%y" -T "tracknumber=%n" -T "genre=%m" %s

TOC of the extracted CD

Track | Start | Length | Start sector | End sector --------------------------------------------------------- 1 | 0:00.03 | 4:13.28 | 3 | 19005 2 | 4:13.31 | 3:55.63 | 19006 | 36693 3 | 8:09.19 | 1:33.62 | 36694 | 43730 4 | 9:43.06 | 2:23.72 | 43731 | 54527 5 | 12:07.03 | 1:05.49 | 54528 | 59451 6 | 13:12.52 | 2:11.48 | 59452 | 69324 7 | 15:24.25 | 2:54.46 | 69325 | 82420 8 | 18:18.71 | 1:30.17 | 82421 | 89187 9 | 19:49.13 | 5:02.37 | 89188 | 111874 10 | 24:51.50 | 1:13.44 | 111875 | 117393 11 | 26:05.19 | 3:52.53 | 117394 | 134846 12 | 29:57.72 | 4:01.66 | 134847 | 152987 13 | 33:59.63 | 5:28.00 | 152988 | 177587 14 | 39:27.63 | 1:08.69 | 177588 | 182756 15 | 40:36.57 | 4:36.52 | 182757 | 203508 16 | 45:13.34 | 7:32.41 | 203509 | 237449 17 | 52:46.00 | 2:09.63 | 237450 | 247187 18 | 54:55.63 | 1:22.63 | 247188 | 253400 19 | 56:18.51 | 3:19.39 | 253401 | 268364 20 | 59:38.15 | 1:40.32 | 268365 | 275896 21 | 61:18.47 | 6:07.03 | 275897 | 303424 22 | 67:25.50 | 6:51.62 | 303425 | 334311

Track 1

Filename D:\MUSIC\John Williams - Indiana Jones. The Soundtracks Collection (2008) [FLAC]\CD1 - Raiders Of The Lost Arc\01 - In the Jungle.wav

Pre-gap length 0:00:02.04

Peak level 95.0 % Track quality 99.9 % Test CRC 636AFFBC Copy CRC 636AFFBC Track not present in AccurateRip database Copy OK

Track 2

Filename D:\MUSIC\John Williams - Indiana Jones. The Soundtracks Collection (2008) [FLAC]\CD1 - Raiders Of The Lost Arc\02 - The Idol Temple.wav

Pre-gap length 0:00:01.82

Peak level 92.5 % Track quality 100.0 % Test CRC B72221E1 Copy CRC B72221E1 Track not present in AccurateRip database Copy OK

Track 3

Filename D:\MUSIC\John Williams - Indiana Jones. The Soundtracks Collection (2008) [FLAC]\CD1 - Raiders Of The Lost Arc\03 - Escape from the Temple.wav

Pre-gap length 0:00:01.72

Peak level 93.0 % Track quality 100.0 % Test CRC 1807E774 Copy CRC 1807E774 Track not present in AccurateRip database Copy OK

Track 4

Filename D:\MUSIC\John Williams - Indiana Jones. The Soundtracks Collection (2008) [FLAC]\CD1 - Raiders Of The Lost Arc\04 - Flight from Peru.wav

Pre-gap length 0:00:02.00

Peak level 92.9 % Track quality 100.0 % Test CRC 6960898B Copy CRC 6960898B Track not present in AccurateRip database Copy OK

Track 5

Filename D:\MUSIC\John Williams - Indiana Jones. The Soundtracks Collection (2008) [FLAC]\CD1 - Raiders Of The Lost Arc\05 - Washington Men,Indy's Home.wav

Pre-gap length 0:00:02.49

Peak level 46.4 % Track quality 100.0 % Test CRC 82E245DE Copy CRC 82E245DE Track not present in AccurateRip database Copy OK

Track 6

Filename D:\MUSIC\John Williams - Indiana Jones. The Soundtracks Collection (2008) [FLAC]\CD1 - Raiders Of The Lost Arc\06 - A Thought for Marion,To Nepal.wav

Pre-gap length 0:00:02.06

Peak level 95.1 % Track quality 100.0 % Test CRC DE540F06 Copy CRC DE540F06 Track not present in AccurateRip database Copy OK

Track 7

Filename D:\MUSIC\John Williams - Indiana Jones. The Soundtracks Collection (2008) [FLAC]\CD1 - Raiders Of The Lost Arc\07 - The Medallion.wav

Pre-gap length 0:00:01.45

Peak level 94.4 % Track quality 100.0 % Test CRC 9C00B088 Copy CRC 9C00B088 Track not present in AccurateRip database Copy OK

Track 8

Filename D:\MUSIC\John Williams - Indiana Jones. The Soundtracks Collection (2008) [FLAC]\CD1 - Raiders Of The Lost Arc\08 - Flight to Cairo.wav

Pre-gap length 0:00:02.28

Peak level 81.5 % Track quality 100.0 % Test CRC 08AD9EF8 Copy CRC 08AD9EF8 Track not present in AccurateRip database Copy OK

Track 9

Filename D:\MUSIC\John Williams - Indiana Jones. The Soundtracks Collection (2008) [FLAC]\CD1 - Raiders Of The Lost Arc\09 - The Basket Game.wav

Pre-gap length 0:00:02.04

Peak level 95.6 % Track quality 99.9 % Test CRC AECFD4D9 Copy CRC AECFD4D9 Track not present in AccurateRip database Copy OK

Track 10

Filename D:\MUSIC\John Williams - Indiana Jones. The Soundtracks Collection (2008) [FLAC]\CD1 - Raiders Of The Lost Arc\10 - Bad Dates.wav

Pre-gap length 0:00:00.74

Peak level 87.4 % Track quality 100.0 % Test CRC 6F6151FA Copy CRC 6F6151FA Track not present in AccurateRip database Copy OK

Track 11

Filename D:\MUSIC\John Williams - Indiana Jones. The Soundtracks Collection (2008) [FLAC]\CD1 - Raiders Of The Lost Arc\11 - The Map Room- Dawn.wav

Pre-gap length 0:00:01.96

Peak level 94.2 % Track quality 100.0 % Test CRC 337B5304 Copy CRC 337B5304 Track not present in AccurateRip database Copy OK

Track 12

Filename D:\MUSIC\John Williams - Indiana Jones. The Soundtracks Collection (2008) [FLAC]\CD1 - Raiders Of The Lost Arc\12 - Reunion in the Tent,Searching for the Well.wav

Pre-gap length 0:00:02.97

Peak level 90.9 % Track quality 100.0 % Test CRC 9B746725 Copy CRC 9B746725 Track not present in AccurateRip database Copy OK

Track 13

Filename D:\MUSIC\John Williams - Indiana Jones. The Soundtracks Collection (2008) [FLAC]\CD1 - Raiders Of The Lost Arc\13 - The Well of the Souls.wav

Pre-gap length 0:00:02.08

Peak level 92.5 % Track quality 100.0 % Test CRC D966985F Copy CRC D966985F Track not present in AccurateRip database Copy OK

Track 14

Filename D:\MUSIC\John Williams - Indiana Jones. The Soundtracks Collection (2008) [FLAC]\CD1 - Raiders Of The Lost Arc\14 - Indy Rides the Statue.wav

Pre-gap length 0:00:01.65

Peak level 94.7 % Track quality 100.0 % Test CRC 9D3B6CE4 Copy CRC 9D3B6CE4 Track not present in AccurateRip database Copy OK

Track 15

Filename D:\MUSIC\John Williams - Indiana Jones. The Soundtracks Collection (2008) [FLAC]\CD1 - Raiders Of The Lost Arc\15 - The Fist Fight,The Flying Wing.wav

Pre-gap length 0:00:01.89

Peak level 95.1 % Track quality 100.0 % Test CRC FE683BFA Copy CRC FE683BFA Track not present in AccurateRip database Copy OK

Track 16

Filename D:\MUSIC\John Williams - Indiana Jones. The Soundtracks Collection (2008) [FLAC]\CD1 - Raiders Of The Lost Arc\16 - Desert Chase.wav

Pre-gap length 0:00:01.96

Peak level 96.7 % Track quality 100.0 % Test CRC 3E2C7593 Copy CRC 3E2C7593 Track not present in AccurateRip database Copy OK

Track 17

Filename D:\MUSIC\John Williams - Indiana Jones. The Soundtracks Collection (2008) [FLAC]\CD1 - Raiders Of The Lost Arc\17 - Marion's Theme,The Crate.wav

Pre-gap length 0:00:01.45

Peak level 94.3 % Track quality 99.9 % Test CRC 2F21518D Copy CRC 2F21518D Track not present in AccurateRip database Copy OK

Track 18

Filename D:\MUSIC\John Williams - Indiana Jones. The Soundtracks Collection (2008) [FLAC]\CD1 - Raiders Of The Lost Arc\18 - The German Sub.wav

Pre-gap length 0:00:02.02

Peak level 94.6 % Track quality 100.0 % Test CRC 1DECFD68 Copy CRC 1DECFD68 Track not present in AccurateRip database Copy OK

Track 19

Filename D:\MUSIC\John Williams - Indiana Jones. The Soundtracks Collection (2008) [FLAC]\CD1 - Raiders Of The Lost Arc\19 - Ride to the Nazi Hideout.wav

Pre-gap length 0:00:01.72

Peak level 94.8 % Track quality 100.0 % Test CRC 82AE9E86 Copy CRC 82AE9E86 Track not present in AccurateRip database Copy OK

Track 20

Filename D:\MUSIC\John Williams - Indiana Jones. The Soundtracks Collection (2008) [FLAC]\CD1 - Raiders Of The Lost Arc\20 - Indy Follows the Ark.wav

Pre-gap length 0:00:02.05

Peak level 94.3 % Track quality 100.0 % Test CRC AA5B2DAB Copy CRC AA5B2DAB Track not present in AccurateRip database Copy OK

Track 21

Filename D:\MUSIC\John Williams - Indiana Jones. The Soundtracks Collection (2008) [FLAC]\CD1 - Raiders Of The Lost Arc\21 - The Miracle of the Ark.wav

Pre-gap length 0:00:01.70

Peak level 95.9 % Track quality 100.0 % Test CRC 47BB6FA1 Copy CRC 47BB6FA1 Track not present in AccurateRip database Copy OK

Track 22

Filename D:\MUSIC\John Williams - Indiana Jones. The Soundtracks Collection (2008) [FLAC]\CD1 - Raiders Of The Lost Arc\22 - Washington Ending & Raiders March.wav

Pre-gap length 0:00:01.84

Peak level 100.0 % Track quality 100.0 % Test CRC 9AA70DEC Copy CRC 9AA70DEC Track not present in AccurateRip database Copy OK

None of the tracks are present in the AccurateRip database

No errors occurred

End of status report
 
Exact Audio Copy V0.99 prebeta 4 from 23. January 2008

EAC extraction logfile from 30. January 2009, 23:32

John Williams / Indiana Jones and the Temple Of Doom

Used drive : PHILIPS DROM6216 Adapter: 1 ID: 0

Read mode : SecureUtilize accurate stream : YesDefeat audio cache : YesMake use of C2 pointers : No

Read offset correction : 738Overread into Lead-In and Lead-Out : NoFill up missing offset samples with silence : YesDelete leading and trailing silent blocks : NoNull samples used in CRC calculations : YesUsed interface : Installed external ASPI interfaceGap handling : Appended to previous track

Used output format : User Defined EncoderSelected bitrate : 128 kBit/sQuality : HighAdd ID3 tag : NoCommand line compressor : C:\Archivos de programa\Exact Audio Copy\Flac\flac.exeAdditional command line options : -V -8 -T "artist=%a" -T "title=%t" -T "album=%g" -T "date=%y" -T "tracknumber=%n" -T "genre=%m" %s

TOC of the extracted CD

Track | Start | Length | Start sector | End sector --------------------------------------------------------- 1 | 0:00.00 | 2:51.08 | 0 | 12832 2 | 2:51.08 | 3:58.38 | 12833 | 30720 3 | 6:49.46 | 2:31.41 | 30721 | 42086 4 | 9:21.12 | 3:39.22 | 42087 | 58533 5 | 13:00.34 | 3:22.21 | 58534 | 73704 6 | 16:22.55 | 2:24.04 | 73705 | 84508 7 | 18:46.59 | 2:28.61 | 84509 | 95669 8 | 21:15.45 | 4:26.13 | 95670 | 115632 9 | 25:41.58 | 5:54.36 | 115633 | 142218 10 | 31:36.19 | 3:30.42 | 142219 | 158010 11 | 35:06.61 | 2:39.31 | 158011 | 169966 12 | 37:46.17 | 2:41.56 | 169967 | 182097 13 | 40:27.73 | 2:58.01 | 182098 | 195448 14 | 43:25.74 | 2:21.56 | 195449 | 206079 15 | 45:47.55 | 3:35.31 | 206080 | 222235 16 | 49:23.11 | 3:23.03 | 222236 | 237463 17 | 52:46.14 | 4:49.04 | 237464 | 259142 18 | 57:35.18 | 3:40.50 | 259143 | 275692 19 | 61:15.68 | 1:55.32 | 275693 | 284349 20 | 63:11.25 | 1:04.70 | 284350 | 289219 21 | 64:16.20 | 4:46.40 | 289220 | 310709 22 | 69:02.60 | 6:19.27 | 310710 | 339161

Track 1

Filename D:\MUSIC\John Williams - Indiana Jones. The Soundtracks Collection (2008) [FLAC]\CD2 - Indiana Jones and the Temple Of Doom\01 - Anything Goes.wav

Pre-gap length 0:00:02.00

Peak level 80.9 % Track quality 100.0 % Test CRC 59712148 Copy CRC 59712148 Track not present in AccurateRip database Copy OK

Track 2

Filename D:\MUSIC\John Williams - Indiana Jones. The Soundtracks Collection (2008) [FLAC]\CD2 - Indiana Jones and the Temple Of Doom\02 - Indy Negotiates.wav

Pre-gap length 0:00:02.32

Peak level 94.5 % Track quality 100.0 % Test CRC 025578C3 Copy CRC 025578C3 Track not present in AccurateRip database Copy OK

Track 3

Filename D:\MUSIC\John Williams - Indiana Jones. The Soundtracks Collection (2008) [FLAC]\CD2 - Indiana Jones and the Temple Of Doom\03 - The Nightclub Brawl.wav

Pre-gap length 0:00:00.97

Peak level 93.3 % Track quality 100.0 % Test CRC 0991A0BF Copy CRC 0991A0BF Track not present in AccurateRip database Copy OK

Track 4

Filename D:\MUSIC\John Williams - Indiana Jones. The Soundtracks Collection (2008) [FLAC]\CD2 - Indiana Jones and the Temple Of Doom\04 - Fast Streets of Shanghai.wav

Pre-gap length 0:00:01.09

Peak level 94.7 % Track quality 100.0 % Test CRC 2BDFE891 Copy CRC 2BDFE891 Track not present in AccurateRip database Copy OK

Track 5

Filename D:\MUSIC\John Williams - Indiana Jones. The Soundtracks Collection (2008) [FLAC]\CD2 - Indiana Jones and the Temple Of Doom\05 - Map , Out of Fuel.wav

Pre-gap length 0:00:01.20

Peak level 90.6 % Track quality 100.0 % Test CRC C2B20AC4 Copy CRC C2B20AC4 Track not present in AccurateRip database Copy OK

Track 6

Filename D:\MUSIC\John Williams - Indiana Jones. The Soundtracks Collection (2008) [FLAC]\CD2 - Indiana Jones and the Temple Of Doom\06 - Slalom on Mt. Humol.wav

Pre-gap length 0:00:01.02

Peak level 83.4 % Track quality 100.0 % Test CRC EEB7B0C9 Copy CRC EEB7B0C9 Track not present in AccurateRip database Copy OK

Track 7

Filename D:\MUSIC\John Williams - Indiana Jones. The Soundtracks Collection (2008) [FLAC]\CD2 - Indiana Jones and the Temple Of Doom\07 - Short Round's Theme.wav

Pre-gap length 0:00:00.25

Peak level 88.4 % Track quality 100.0 % Test CRC F3EF43F6 Copy CRC F3EF43F6 Track not present in AccurateRip database Copy OK

Track 8

Filename D:\MUSIC\John Williams - Indiana Jones. The Soundtracks Collection (2008) [FLAC]\CD2 - Indiana Jones and the Temple Of Doom\08 - The Scroll , To Pankot Palace.wav

Pre-gap length 0:00:00.94

Peak level 92.4 % Track quality 100.0 % Test CRC 898BD647 Copy CRC 898BD647 Track not present in AccurateRip database Copy OK

Track 9

Filename D:\MUSIC\John Williams - Indiana Jones. The Soundtracks Collection (2008) [FLAC]\CD2 - Indiana Jones and the Temple Of Doom\09 - Nocturnal Activities.wav

Pre-gap length 0:00:02.29

Peak level 91.8 % Track quality 100.0 % Test CRC DFCBBEC9 Copy CRC DFCBBEC9 Track not present in AccurateRip database Copy OK

Track 10

Filename D:\MUSIC\John Williams - Indiana Jones. The Soundtracks Collection (2008) [FLAC]\CD2 - Indiana Jones and the Temple Of Doom\10 - Bug Tunnel , Death Trap.wav

Pre-gap length 0:00:01.29

Peak level 89.7 % Track quality 100.0 % Test CRC 281E8755 Copy CRC 281E8755 Track not present in AccurateRip database Copy OK

Track 11

Filename D:\MUSIC\John Williams - Indiana Jones. The Soundtracks Collection (2008) [FLAC]\CD2 - Indiana Jones and the Temple Of Doom\11 - Approaching the Stones.wav

Pre-gap length 0:00:01.61

Peak level 91.5 % Track quality 99.9 % Test CRC B650F900 Copy CRC B650F900 Track not present in AccurateRip database Copy OK

Track 12

Filename D:\MUSIC\John Williams - Indiana Jones. The Soundtracks Collection (2008) [FLAC]\CD2 - Indiana Jones and the Temple Of Doom\12 - Children in Chains.wav

Pre-gap length 0:00:00.49

Peak level 83.4 % Track quality 100.0 % Test CRC 40C24E8C Copy CRC 40C24E8C Track not present in AccurateRip database Copy OK

Track 13

Filename D:\MUSIC\John Williams - Indiana Jones. The Soundtracks Collection (2008) [FLAC]\CD2 - Indiana Jones and the Temple Of Doom\13 - The Temple of Doom.wav

Pre-gap length 0:00:00.46

Peak level 92.7 % Track quality 100.0 % Test CRC 653F37CB Copy CRC 653F37CB Track not present in AccurateRip database Copy OK

Track 14

Filename D:\MUSIC\John Williams - Indiana Jones. The Soundtracks Collection (2008) [FLAC]\CD2 - Indiana Jones and the Temple Of Doom\14 - Short Round Escapes.wav

Peak level 90.5 % Track quality 100.0 % Test CRC 30E52C58 Copy CRC 30E52C58 Track not present in AccurateRip database Copy OK

Track 15

Filename D:\MUSIC\John Williams - Indiana Jones. The Soundtracks Collection (2008) [FLAC]\CD2 - Indiana Jones and the Temple Of Doom\15 - Saving Willie.wav

Pre-gap length 0:00:01.02

Peak level 92.6 % Track quality 100.0 % Test CRC 009A55B6 Copy CRC 009A55B6 Track not present in AccurateRip database Copy OK

Track 16

Filename D:\MUSIC\John Williams - Indiana Jones. The Soundtracks Collection (2008) [FLAC]\CD2 - Indiana Jones and the Temple Of Doom\16 - Slave Children's Crusade.wav

Pre-gap length 0:00:01.09

Peak level 92.6 % Track quality 100.0 % Test CRC 38A50AA6 Copy CRC 38A50AA6 Track not present in AccurateRip database Copy OK

Track 17

Filename D:\MUSIC\John Williams - Indiana Jones. The Soundtracks Collection (2008) [FLAC]\CD2 - Indiana Jones and the Temple Of Doom\17 - Short Round Helps.wav

Pre-gap length 0:00:00.92

Peak level 92.1 % Track quality 100.0 % Test CRC 4C9A5C27 Copy CRC 4C9A5C27 Track not present in AccurateRip database Copy OK

Track 18

Filename D:\MUSIC\John Williams - Indiana Jones. The Soundtracks Collection (2008) [FLAC]\CD2 - Indiana Jones and the Temple Of Doom\18 - The Mine Car Chase.wav

Peak level 92.0 % Track quality 100.0 % Test CRC F9B4733E Copy CRC F9B4733E Track not present in AccurateRip database Copy OK

Track 19

Filename D:\MUSIC\John Williams - Indiana Jones. The Soundtracks Collection (2008) [FLAC]\CD2 - Indiana Jones and the Temple Of Doom\19 - Water!.wav

Peak level 91.9 % Track quality 100.0 % Test CRC 9D3C797F Copy CRC 9D3C797F Track not present in AccurateRip database Copy OK

Track 20

Filename D:\MUSIC\John Williams - Indiana Jones. The Soundtracks Collection (2008) [FLAC]\CD2 - Indiana Jones and the Temple Of Doom\20 - The Sword Trick.wav

Pre-gap length 0:00:00.44

Peak level 91.1 % Track quality 100.0 % Test CRC F7D82E76 Copy CRC F7D82E76 Track not present in AccurateRip database Copy OK

Track 21

Filename D:\MUSIC\John Williams - Indiana Jones. The Soundtracks Collection (2008) [FLAC]\CD2 - Indiana Jones and the Temple Of Doom\21 - The Broken Bridge , British Relief.wav

Pre-gap length 0:00:01.26

Peak level 92.1 % Track quality 99.9 % Test CRC EE2E8389 Copy CRC EE2E8389 Track not present in AccurateRip database Copy OK

Track 22

Filename D:\MUSIC\John Williams - Indiana Jones. The Soundtracks Collection (2008) [FLAC]\CD2 - Indiana Jones and the Temple Of Doom\22 - End Credits.wav

Peak level 96.5 % Track quality 100.0 % Test CRC 3F803472 Copy CRC 3F803472 Track not present in AccurateRip database Copy OK

None of the tracks are present in the AccurateRip database

No errors occurred

End of status report
 
Exact Audio Copy V0.99 prebeta 4 from 23. January 2008

EAC extraction logfile from 31. January 2009, 0:04

John Williams / Indiana Jones and the Last Crusade

Used drive : PHILIPS DROM6216 Adapter: 1 ID: 0

Read mode : SecureUtilize accurate stream : YesDefeat audio cache : YesMake use of C2 pointers : No

Read offset correction : 738Overread into Lead-In and Lead-Out : NoFill up missing offset samples with silence : YesDelete leading and trailing silent blocks : NoNull samples used in CRC calculations : YesUsed interface : Installed external ASPI interfaceGap handling : Appended to previous track

Used output format : User Defined EncoderSelected bitrate : 128 kBit/sQuality : HighAdd ID3 tag : NoCommand line compressor : C:\Archivos de programa\Exact Audio Copy\Flac\flac.exeAdditional command line options : -V -8 -T "artist=%a" -T "title=%t" -T "album=%g" -T "date=%y" -T "tracknumber=%n" -T "genre=%m" %s

TOC of the extracted CD

Track | Start | Length | Start sector | End sector --------------------------------------------------------- 1 | 0:00.00 | 12:00.06 | 0 | 54005 2 | 12:00.06 | 2:22.58 | 54006 | 64713 3 | 14:22.64 | 3:11.57 | 64714 | 79095 4 | 17:34.46 | 3:40.25 | 79096 | 95620 5 | 21:14.71 | 4:22.36 | 95621 | 115306 6 | 25:37.32 | 0:38.26 | 115307 | 118182 7 | 26:15.58 | 1:48.58 | 118183 | 126340 8 | 28:04.41 | 2:39.58 | 126341 | 138323 9 | 30:44.24 | 3:53.31 | 138324 | 155829 10 | 34:37.55 | 3:06.20 | 155830 | 169799 11 | 37:44.00 | 2:45.21 | 169800 | 182195 12 | 40:29.21 | 3:37.10 | 182196 | 198480 13 | 44:06.31 | 1:56.46 | 198481 | 207226 14 | 46:03.02 | 3:38.22 | 207227 | 223598 15 | 49:41.24 | 5:28.46 | 223599 | 248244 16 | 55:09.70 | 4:17.03 | 248245 | 267522 17 | 59:26.73 | 3:23.58 | 267523 | 282805 18 | 62:50.56 | 3:23.62 | 282806 | 298092 19 | 66:14.43 | 10:39.59 | 298093 | 346076

Track 1

Filename D:\MUSIC\John Williams - Indiana Jones. The Soundtracks Collection (2008) [FLAC]\CD3 - Indiana Jones and the Last Crusade\01 - Indy's Very First Adventure.wav

Pre-gap length 0:00:02.00

Peak level 94.0 % Track quality 100.0 % Test CRC FB3C44F7 Copy CRC FB3C44F7 Track not present in AccurateRip database Copy OK

Track 2

Filename D:\MUSIC\John Williams - Indiana Jones. The Soundtracks Collection (2008) [FLAC]\CD3 - Indiana Jones and the Last Crusade\02 - The Boat Scene.wav

Pre-gap length 0:00:00.05

Peak level 94.8 % Track quality 99.9 % Test CRC 6B313253 Copy CRC 6B313253 Track not present in AccurateRip database Copy OK

Track 3

Filename D:\MUSIC\John Williams - Indiana Jones. The Soundtracks Collection (2008) [FLAC]\CD3 - Indiana Jones and the Last Crusade\03 - X Marks the Spot.wav

Pre-gap length 0:00:00.98

Peak level 93.7 % Track quality 100.0 % Test CRC 24976DB9 Copy CRC 24976DB9 Track not present in AccurateRip database Copy OK

Track 4

Filename D:\MUSIC\John Williams - Indiana Jones. The Soundtracks Collection (2008) [FLAC]\CD3 - Indiana Jones and the Last Crusade\04 - Ah, Rats!!!.wav

Pre-gap length 0:00:00.58

Peak level 93.2 % Track quality 100.0 % Test CRC DB8D8074 Copy CRC DB8D8074 Track not present in AccurateRip database Copy OK

Track 5

Filename D:\MUSIC\John Williams - Indiana Jones. The Soundtracks Collection (2008) [FLAC]\CD3 - Indiana Jones and the Last Crusade\05 - Escape from Venice.wav

Peak level 94.0 % Track quality 100.0 % Test CRC C41F0260 Copy CRC C41F0260 Track not present in AccurateRip database Copy OK

Track 6

Filename D:\MUSIC\John Williams - Indiana Jones. The Soundtracks Collection (2008) [FLAC]\CD3 - Indiana Jones and the Last Crusade\06 - Journey to Austria.wav

Peak level 93.3 % Track quality 100.0 % Test CRC 7D1819EB Copy CRC 7D1819EB Track not present in AccurateRip database Copy OK

Track 7

Filename D:\MUSIC\John Williams - Indiana Jones. The Soundtracks Collection (2008) [FLAC]\CD3 - Indiana Jones and the Last Crusade\07 - Father and Son Reunited.wav

Pre-gap length 0:00:00.34

Peak level 93.2 % Track quality 100.0 % Test CRC A30E7F6A Copy CRC A30E7F6A Track not present in AccurateRip database Copy OK

Track 8

Filename D:\MUSIC\John Williams - Indiana Jones. The Soundtracks Collection (2008) [FLAC]\CD3 - Indiana Jones and the Last Crusade\08 - The Austrian Way.wav

Pre-gap length 0:00:00.64

Peak level 90.5 % Track quality 100.0 % Test CRC 3B3EED39 Copy CRC 3B3EED39 Track not present in AccurateRip database Copy OK

Track 9

Filename D:\MUSIC\John Williams - Indiana Jones. The Soundtracks Collection (2008) [FLAC]\CD3 - Indiana Jones and the Last Crusade\09 - Scherzo for Motorcycle and Orchestra.wav

Pre-gap length 0:00:00.49

Peak level 93.3 % Track quality 99.9 % Test CRC ACFDDE92 Copy CRC ACFDDE92 Track not present in AccurateRip database Copy OK

Track 10

Filename D:\MUSIC\John Williams - Indiana Jones. The Soundtracks Collection (2008) [FLAC]\CD3 - Indiana Jones and the Last Crusade\10 - Alarm!.wav

Pre-gap length 0:00:00.76

Peak level 94.1 % Track quality 99.9 % Test CRC 2610B681 Copy CRC 2610B681 Track not present in AccurateRip database Copy OK

Track 11

Filename D:\MUSIC\John Williams - Indiana Jones. The Soundtracks Collection (2008) [FLAC]\CD3 - Indiana Jones and the Last Crusade\11 - No Ticket.wav

Pre-gap length 0:00:00.78

Peak level 93.5 % Track quality 100.0 % Test CRC 51104414 Copy CRC 51104414 Track not present in AccurateRip database Copy OK

Track 12

Filename D:\MUSIC\John Williams - Indiana Jones. The Soundtracks Collection (2008) [FLAC]\CD3 - Indiana Jones and the Last Crusade\12 - Keeping Up With The Joneses.wav

Pre-gap length 0:00:01.33

Peak level 86.4 % Track quality 99.9 % Test CRC 8FD8DBA7 Copy CRC 8FD8DBA7 Track not present in AccurateRip database Copy OK

Track 13

Filename D:\MUSIC\John Williams - Indiana Jones. The Soundtracks Collection (2008) [FLAC]\CD3 - Indiana Jones and the Last Crusade\13 - Brother of the Cruciform Sword.wav

Pre-gap length 0:00:00.50

Peak level 91.9 % Track quality 100.0 % Test CRC 88F653EB Copy CRC 88F653EB Track not present in AccurateRip database Copy OK

Track 14

Filename D:\MUSIC\John Williams - Indiana Jones. The Soundtracks Collection (2008) [FLAC]\CD3 - Indiana Jones and the Last Crusade\14 - On the Tank.wav

Pre-gap length 0:00:00.34

Peak level 93.9 % Track quality 100.0 % Test CRC EA57D877 Copy CRC EA57D877 Track not present in AccurateRip database Copy OK

Track 15

Filename D:\MUSIC\John Williams - Indiana Jones. The Soundtracks Collection (2008) [FLAC]\CD3 - Indiana Jones and the Last Crusade\15 - Belly of the Steel Beast.wav

Pre-gap length 0:00:00.68

Peak level 94.9 % Track quality 100.0 % Test CRC A37D3FCB Copy CRC A37D3FCB Track not present in AccurateRip database Copy OK

Track 16

Filename D:\MUSIC\John Williams - Indiana Jones. The Soundtracks Collection (2008) [FLAC]\CD3 - Indiana Jones and the Last Crusade\16 - The Canyon of the Crescent Moon.wav

Pre-gap length 0:00:00.50

Peak level 93.8 % Track quality 99.9 % Test CRC 7B7CE8D8 Copy CRC 7B7CE8D8 Track not present in AccurateRip database Copy OK

Track 17

Filename D:\MUSIC\John Williams - Indiana Jones. The Soundtracks Collection (2008) [FLAC]\CD3 - Indiana Jones and the Last Crusade\17 - The Penitent Man Will Pass.wav

Peak level 93.7 % Track quality 100.0 % Test CRC 81E536F5 Copy CRC 81E536F5 Track not present in AccurateRip database Copy OK

Track 18

Filename D:\MUSIC\John Williams - Indiana Jones. The Soundtracks Collection (2008) [FLAC]\CD3 - Indiana Jones and the Last Crusade\18 - The Keeper of the Grail.wav

Pre-gap length 0:00:00.62

Peak level 71.4 % Track quality 100.0 % Test CRC B36FC085 Copy CRC B36FC085 Track not present in AccurateRip database Copy OK

Track 19

Filename D:\MUSIC\John Williams - Indiana Jones. The Soundtracks Collection (2008) [FLAC]\CD3 - Indiana Jones and the Last Crusade\19 - Finale & End Credits.wav

Pre-gap length 0:00:00.73

Peak level 95.1 % Track quality 100.0 % Test CRC EAA5B270 Copy CRC EAA5B270 Track not present in AccurateRip database Copy OK

None of the tracks are present in the AccurateRip database

No errors occurred

End of status report
 
Exact Audio Copy V0.99 prebeta 4 from 23. January 2008

EAC extraction logfile from 31. January 2009, 1:18

John Williams / Indiana Jones and the Kingdom Of The Crystal Skull

Used drive : PHILIPS DROM6216 Adapter: 1 ID: 0

Read mode : SecureUtilize accurate stream : YesDefeat audio cache : YesMake use of C2 pointers : No

Read offset correction : 738Overread into Lead-In and Lead-Out : NoFill up missing offset samples with silence : YesDelete leading and trailing silent blocks : NoNull samples used in CRC calculations : YesUsed interface : Installed external ASPI interfaceGap handling : Appended to previous track

Used output format : User Defined EncoderSelected bitrate : 128 kBit/sQuality : HighAdd ID3 tag : NoCommand line compressor : C:\Archivos de programa\Exact Audio Copy\Flac\flac.exeAdditional command line options : -V -8 -T "artist=%a" -T "title=%t" -T "album=%g" -T "date=%y" -T "tracknumber=%n" -T "genre=%m" %s

TOC of the extracted CD

Track | Start | Length | Start sector | End sector --------------------------------------------------------- 1 | 0:00.00 | 5:05.48 | 0 | 22922 2 | 5:05.48 | 3:49.67 | 22923 | 40164 3 | 8:55.40 | 3:12.29 | 40165 | 54593 4 | 12:07.69 | 2:26.14 | 54594 | 65557 5 | 14:34.08 | 3:15.18 | 65558 | 80200 6 | 17:49.26 | 4:24.08 | 80201 | 100008 7 | 22:13.34 | 3:07.62 | 100009 | 114095 8 | 25:21.21 | 3:33.50 | 114096 | 130120 9 | 28:54.71 | 3:11.40 | 130121 | 144485 10 | 32:06.36 | 4:22.42 | 144486 | 164177 11 | 36:29.03 | 4:22.05 | 164178 | 183832 12 | 40:51.08 | 2:28.57 | 183833 | 194989 13 | 43:19.65 | 5:13.39 | 194990 | 218503 14 | 48:33.29 | 2:17.16 | 218504 | 228794 15 | 50:50.45 | 4:45.73 | 228795 | 250242 16 | 55:36.43 | 4:14.00 | 250243 | 269292 17 | 59:50.43 | 5:51.06 | 269293 | 295623 18 | 65:41.49 | 2:26.56 | 295624 | 306629 19 | 68:08.30 | 9:19.64 | 306630 | 348618

Track 1

Filename D:\MUSIC\John Williams - Indiana Jones. The Soundtracks Collection (2008) [FLAC]\CD4 - Indiana Jones and the Kingdom Of The Crystal Skull\01 - The Raiders March.wav

Pre-gap length 0:00:02.00

Peak level 95.4 % Track quality 100.0 % Test CRC 42442326 Copy CRC 42442326 Accurately ripped (confidence 26) [3DED3D70] Copy OK

Track 2

Filename D:\MUSIC\John Williams - Indiana Jones. The Soundtracks Collection (2008) [FLAC]\CD4 - Indiana Jones and the Kingdom Of The Crystal Skull\02 - Call of The Crystal.wav

Peak level 94.8 % Track quality 100.0 % Test CRC AE7990FC Copy CRC AE7990FC Accurately ripped (confidence 27) [4B01A0C2] Copy OK

Track 3

Filename D:\MUSIC\John Williams - Indiana Jones. The Soundtracks Collection (2008) [FLAC]\CD4 - Indiana Jones and the Kingdom Of The Crystal Skull\03 - The Adventures of Mutt.wav

Peak level 95.4 % Track quality 100.0 % Test CRC B467C053 Copy CRC B467C053 Accurately ripped (confidence 27) [1D49C828] Copy OK

Track 4

Filename D:\MUSIC\John Williams - Indiana Jones. The Soundtracks Collection (2008) [FLAC]\CD4 - Indiana Jones and the Kingdom Of The Crystal Skull\04 - Irina's Theme.wav

Peak level 91.2 % Track quality 100.0 % Test CRC 3A701602 Copy CRC 3A701602 Accurately ripped (confidence 27) [1CC574B7] Copy OK

Track 5

Filename D:\MUSIC\John Williams - Indiana Jones. The Soundtracks Collection (2008) [FLAC]\CD4 - Indiana Jones and the Kingdom Of The Crystal Skull\05 - The Snake Pit.wav

Peak level 91.9 % Track quality 99.9 % Test CRC BB097C97 Copy CRC BB097C97 Accurately ripped (confidence 27) [3E2F25AC] Copy OK

Track 6

Filename D:\MUSIC\John Williams - Indiana Jones. The Soundtracks Collection (2008) [FLAC]\CD4 - Indiana Jones and the Kingdom Of The Crystal Skull\06 - The Spell of The Skull.wav

Peak level 92.7 % Track quality 100.0 % Test CRC 5AF695F7 Copy CRC 5AF695F7 Accurately ripped (confidence 27) [9F73E648] Copy OK

Track 7

Filename D:\MUSIC\John Williams - Indiana Jones. The Soundtracks Collection (2008) [FLAC]\CD4 - Indiana Jones and the Kingdom Of The Crystal Skull\07 - The Journey to Akator.wav

Peak level 91.6 % Track quality 100.0 % Test CRC 4E922303 Copy CRC 4E922303 Accurately ripped (confidence 27) [DCD2A884] Copy OK

Track 8

Filename D:\MUSIC\John Williams - Indiana Jones. The Soundtracks Collection (2008) [FLAC]\CD4 - Indiana Jones and the Kingdom Of The Crystal Skull\08 - A Whirl Through Academe.wav

Peak level 95.4 % Track quality 100.0 % Test CRC D345BC54 Copy CRC D345BC54 Accurately ripped (confidence 27) [0EB7FAED] Copy OK

Track 9

Filename D:\MUSIC\John Williams - Indiana Jones. The Soundtracks Collection (2008) [FLAC]\CD4 - Indiana Jones and the Kingdom Of The Crystal Skull\09 - 'Return'.wav

Peak level 93.2 % Track quality 100.0 % Test CRC 47E7F8DE Copy CRC 47E7F8DE Accurately ripped (confidence 26) [7BE88817] Copy OK

Track 10

Filename D:\MUSIC\John Williams - Indiana Jones. The Soundtracks Collection (2008) [FLAC]\CD4 - Indiana Jones and the Kingdom Of The Crystal Skull\10 - The Jungle Chase.wav

Peak level 92.6 % Track quality 100.0 % Test CRC AF4A1D8E Copy CRC AF4A1D8E Accurately ripped (confidence 27) [091168B5] Copy OK

Track 11

Filename D:\MUSIC\John Williams - Indiana Jones. The Soundtracks Collection (2008) [FLAC]\CD4 - Indiana Jones and the Kingdom Of The Crystal Skull\11 - Orellana's Cradle.wav

Peak level 90.5 % Track quality 100.0 % Test CRC A4B6A2D0 Copy CRC A4B6A2D0 Accurately ripped (confidence 27) [C25BC65E] Copy OK

Track 12

Filename D:\MUSIC\John Williams - Indiana Jones. The Soundtracks Collection (2008) [FLAC]\CD4 - Indiana Jones and the Kingdom Of The Crystal Skull\12 - Grave Robbers.wav

Peak level 93.2 % Track quality 99.9 % Test CRC 322227F5 Copy CRC 322227F5 Accurately ripped (confidence 27) [C198AC9D] Copy OK

Track 13

Filename D:\MUSIC\John Williams - Indiana Jones. The Soundtracks Collection (2008) [FLAC]\CD4 - Indiana Jones and the Kingdom Of The Crystal Skull\13 - Hidden Treasure and The City of Gold.wav

Peak level 93.2 % Track quality 100.0 % Test CRC 23380E7D Copy CRC 23380E7D Accurately ripped (confidence 27) [4D274F36] Copy OK

Track 14

Filename D:\MUSIC\John Williams - Indiana Jones. The Soundtracks Collection (2008) [FLAC]\CD4 - Indiana Jones and the Kingdom Of The Crystal Skull\14 - Secret Doors and Scorpions.wav

Peak level 90.9 % Track quality 100.0 % Test CRC 62CB69FD Copy CRC 62CB69FD Accurately ripped (confidence 27) [E41B937F] Copy OK

Track 15

Filename D:\MUSIC\John Williams - Indiana Jones. The Soundtracks Collection (2008) [FLAC]\CD4 - Indiana Jones and the Kingdom Of The Crystal Skull\15 - Oxley's Dilemma.wav

Peak level 92.9 % Track quality 100.0 % Test CRC 10989AD9 Copy CRC 10989AD9 Accurately ripped (confidence 27) [8F1C8F29] Copy OK

Track 16

Filename D:\MUSIC\John Williams - Indiana Jones. The Soundtracks Collection (2008) [FLAC]\CD4 - Indiana Jones and the Kingdom Of The Crystal Skull\16 - Ants!.wav

Peak level 93.5 % Track quality 99.9 % Test CRC E6A68558 Copy CRC E6A68558 Accurately ripped (confidence 27) [4BCF7995] Copy OK

Track 17

Filename D:\MUSIC\John Williams - Indiana Jones. The Soundtracks Collection (2008) [FLAC]\CD4 - Indiana Jones and the Kingdom Of The Crystal Skull\17 - Temple Ruins and The Secret Revealed.wav

Peak level 92.9 % Track quality 100.0 % Test CRC 140A9252 Copy CRC 140A9252 Accurately ripped (confidence 27) [DA8EBCA6] Copy OK

Track 18

Filename D:\MUSIC\John Williams - Indiana Jones. The Soundtracks Collection (2008) [FLAC]\CD4 - Indiana Jones and the Kingdom Of The Crystal Skull\18 - The Departure.wav

Peak level 93.1 % Track quality 100.0 % Test CRC 60020637 Copy CRC 60020637 Accurately ripped (confidence 26) [11264459] Copy OK

Track 19

Filename D:\MUSIC\John Williams - Indiana Jones. The Soundtracks Collection (2008) [FLAC]\CD4 - Indiana Jones and the Kingdom Of The Crystal Skull\19 - Finale.wav

Peak level 95.4 % Track quality 99.9 % Test CRC 472942D2 Copy CRC 472942D2 Accurately ripped (confidence 26) [68F4AE9D] Copy OK

All tracks accurately ripped

No errors occurred

End of status report
 
Exact Audio Copy V0.99 prebeta 4 from 23. January 2008

EAC extraction logfile from 31. January 2009, 1:56

John Williams / Interviews and More Music from Indiana Jones

Used drive : PHILIPS DROM6216 Adapter: 1 ID: 0

Read mode : SecureUtilize accurate stream : YesDefeat audio cache : YesMake use of C2 pointers : No

Read offset correction : 738Overread into Lead-In and Lead-Out : NoFill up missing offset samples with silence : YesDelete leading and trailing silent blocks : NoNull samples used in CRC calculations : YesUsed interface : Installed external ASPI interfaceGap handling : Appended to previous track

Used output format : User Defined EncoderSelected bitrate : 128 kBit/sQuality : HighAdd ID3 tag : NoCommand line compressor : C:\Archivos de programa\Exact Audio Copy\Flac\flac.exeAdditional command line options : -V -8 -T "artist=%a" -T "title=%t" -T "album=%g" -T "date=%y" -T "tracknumber=%n" -T "genre=%m" %s

TOC of the extracted CD

Track | Start | Length | Start sector | End sector --------------------------------------------------------- 1 | 0:00.00 | 2:30.02 | 0 | 11251 2 | 2:30.02 | 17:57.70 | 11252 | 92096 3 | 20:27.72 | 5:32.16 | 92097 | 117012 4 | 26:00.13 | 3:53.43 | 117013 | 134530 5 | 29:53.56 | 3:31.03 | 134531 | 150358 6 | 33:24.59 | 2:27.16 | 150359 | 161399 7 | 35:52.00 | 1:55.30 | 161400 | 170054 8 | 37:47.30 | 2:03.48 | 170055 | 179327 9 | 39:51.03 | 1:29.48 | 179328 | 186050 10 | 41:20.51 | 2:26.47 | 186051 | 197047 11 | 43:47.23 | 4:36.14 | 197048 | 217761 12 | 48:23.37 | 3:27.32 | 217762 | 233318

Track 1

Filename D:\MUSIC\John Williams - Indiana Jones. The Soundtracks Collection (2008) [FLAC]\CD5 - Interviews And More Music From Indiana Jones\01 - Raiders March.wav

Pre-gap length 0:00:02.00

Peak level 95.1 % Track quality 100.0 % Test CRC AA517E68 Copy CRC AA517E68 Track not present in AccurateRip database Copy OK

Track 2

Filename D:\MUSIC\John Williams - Indiana Jones. The Soundtracks Collection (2008) [FLAC]\CD5 - Interviews And More Music From Indiana Jones\02 - Interviews with John Williams, Steven Spielberg, and George Lucas.wav

Pre-gap length 0:00:02.00

Peak level 74.8 % Track quality 100.0 % Test CRC D3A8D1D1 Copy CRC D3A8D1D1 Track not present in AccurateRip database Copy OK

Track 3

Filename D:\MUSIC\John Williams - Indiana Jones. The Soundtracks Collection (2008) [FLAC]\CD5 - Interviews And More Music From Indiana Jones\03 - Uncovering the Ark.wav

Pre-gap length 0:00:02.06

Peak level 98.7 % Track quality 100.0 % Test CRC 8799AEA3 Copy CRC 8799AEA3 Track not present in AccurateRip database Copy OK

Track 4

Filename D:\MUSIC\John Williams - Indiana Jones. The Soundtracks Collection (2008) [FLAC]\CD5 - Interviews And More Music From Indiana Jones\04 - Indy and the Villagers.wav

Pre-gap length 0:00:01.98

Peak level 94.6 % Track quality 100.0 % Test CRC C57E0F3A Copy CRC C57E0F3A Track not present in AccurateRip database Copy OK

Track 5

Filename D:\MUSIC\John Williams - Indiana Jones. The Soundtracks Collection (2008) [FLAC]\CD5 - Interviews And More Music From Indiana Jones\05 - The Secret Passage.wav

Pre-gap length 0:00:01.98

Peak level 93.6 % Track quality 100.0 % Test CRC 5D2DA594 Copy CRC 5D2DA594 Track not present in AccurateRip database Copy OK

Track 6

Filename D:\MUSIC\John Williams - Indiana Jones. The Soundtracks Collection (2008) [FLAC]\CD5 - Interviews And More Music From Indiana Jones\06 - Father's Study.wav

Pre-gap length 0:00:02.26

Peak level 94.0 % Track quality 100.0 % Test CRC 4F5B26C5 Copy CRC 4F5B26C5 Track not present in AccurateRip database Copy OK

Track 7

Filename D:\MUSIC\John Williams - Indiana Jones. The Soundtracks Collection (2008) [FLAC]\CD5 - Interviews And More Music From Indiana Jones\07 - Marcus is Captured , To Berlin.wav

Pre-gap length 0:00:00.74

Peak level 89.1 % Track quality 100.0 % Test CRC CAABCFC8 Copy CRC CAABCFC8 Track not present in AccurateRip database Copy OK

Track 8

Filename D:\MUSIC\John Williams - Indiana Jones. The Soundtracks Collection (2008) [FLAC]\CD5 - Interviews And More Music From Indiana Jones\08 - To the Blimp.wav

Pre-gap length 0:00:02.08

Peak level 94.8 % Track quality 100.0 % Test CRC A719A006 Copy CRC A719A006 Track not present in AccurateRip database Copy OK

Track 9

Filename D:\MUSIC\John Williams - Indiana Jones. The Soundtracks Collection (2008) [FLAC]\CD5 - Interviews And More Music From Indiana Jones\09 - The Blimp Turns Around.wav

Pre-gap length 0:00:02.09

Peak level 94.7 % Track quality 99.8 % Test CRC 86B4D2FA Copy CRC 86B4D2FA Track not present in AccurateRip database Copy OK

Track 10

Filename D:\MUSIC\John Williams - Indiana Jones. The Soundtracks Collection (2008) [FLAC]\CD5 - Interviews And More Music From Indiana Jones\10 - Death of Kazim.wav

Pre-gap length 0:00:01.98

Peak level 93.5 % Track quality 100.0 % Test CRC 6190DD1A Copy CRC 6190DD1A Track not present in AccurateRip database Copy OK

Track 11

Filename D:\MUSIC\John Williams - Indiana Jones. The Soundtracks Collection (2008) [FLAC]\CD5 - Interviews And More Music From Indiana Jones\11 - Wrong Choice, Right Choice.wav

Pre-gap length 0:00:02.26

Peak level 94.3 % Track quality 100.0 % Test CRC 1B938EF4 Copy CRC 1B938EF4 Track not present in AccurateRip database Copy OK

Track 12

Filename D:\MUSIC\John Williams - Indiana Jones. The Soundtracks Collection (2008) [FLAC]\CD5 - Interviews And More Music From Indiana Jones\12 - Return to the Village , Raiders March.wav

Pre-gap length 0:00:02.18

Peak level 94.2 % Track quality 100.0 % Test CRC EE1DBEF8 Copy CRC EE1DBEF8 Track not present in AccurateRip database Copy OK

None of the tracks are present in the AccurateRip database

No errors occurred

End of status report
Limited 5-CD box set with faux leather cover and embossed gold logo. CDs are housed in digi-paks (each containing an extra booklet), except disc 5 which comes in a cardboard sleeve. Comes with an additional 32-page photo booklet.

Contains previously unreleased music:
disc 1: 5, 10, 14 (previously unreleased on CD)
disc 2: 2, 3, 5, 8, 11, 14, 15, 17, 19, 20, 21 (previously unreleased)
disc 3: 1 (includes previously unreleased material); 2, 6, 7, 8, 10, 14 (previously unreleased)
disc 5: 3 (from Raiders...); 4, 5, 12 (from Temple...); 6-11 (from Last Crusade)
Catalogue numbers:
CRE-31000-02: Interviews And More Music From Indiana Jones
CRE-31002-02: Raiders Of The Lost Ark
CRE-31003-02: Indiana Jones And The Temple Of Doom
CRE-31004-02: Indiana Jones And The Last Crusade
CRE-30825-02: Indiana Jones And The Kingdom Of The Crystal Skull


Трекер:  [ 21-Дек-2010 13:28 ]

  

Скачать .torrent

Размер .torrent файла 34 KB


Размер: 1.92 GB
Хэш (hash) релиза: 1494c2d15d0814bb12a31a4070dbb698a6e30bb5

bot

Топик был перенесен в форум Саундтреки к фильмам и мультфильмам (lossless)

Перенес Mos

Хотите добавить комментарий к записи скачать торрент John Williams - Indiana Jones - The Soundtracks Collection - 2008,

!Обратная связь