Скачать через торрент музыку Высокое искусство High Art бесплатно без регистрации torrent

Если у вас наблюдаются проблемы со скриншотами, переходом по ссылками, скачиванием торрентов - проблемы в блокировщике рекламы AdBlock. #хорошегоДня!


Статистика раздачи
Размер:  219 MB   |    Зарегистрирован:  6 лет 8 месяцев   |    .torrent скачан:  43 раза   |   
Раздают:  1  
   
Загрузка...
 
Автор Сообщение

AqvaGen


Высокое искусство / High Art

Жанр: Score
Композитор: Shudder to Think
Год выпуска диска: 1998
Страна-производитель диска: USA
Издатель (лейбл): Velvel Records
Номер по каталогу: 63467-79735-2

Аудио кодек: FLAC (*.flac)
Тип рипа: tracks+.cue
Битрейт аудио: lossless
Продолжительность: 45:34

Треклист:

01. Opening (02:08)
02. Dominoes (02:17)
03. Cocoa Butter (03:51)
04. Mom's Mercedes (03:18)
05. Photographic Ecstasy (01:00)
06. The Gavia (04:48) - Reservoir
07. Neotony (02:00)
08. ph Balanced (for a lady) (02:35)
09. Battle Soaked (Amnesian Mix) (05:25)
10. That's Fat (03:31) - JeepJazz Project
11. She Gives Tone (04:23)
12. Last Lines (02:23)
13. She Might Be Waking Up (02:47)
14. Fools (03:49)
15. End Frame (01:19)
 
Exact Audio Copy V0.99 prebeta 4 from 23. January 2008

EAC extraction logfile from 4. January 2009, 1:16

Shudder To Think / High Art - Music From the Motion Picture Soundtrack

Used drive : PLEXTOR DVDR PX-750A Adapter: 0 ID: 0

Read mode : SecureUtilize accurate stream : YesDefeat audio cache : YesMake use of C2 pointers : No

Read offset correction : 102Overread into Lead-In and Lead-Out : NoFill up missing offset samples with silence : YesDelete leading and trailing silent blocks : NoNull samples used in CRC calculations : YesUsed interface : Installed external ASPI interfaceGap handling : Appended to previous track

Used output format : User Defined EncoderSelected bitrate : 192 kBit/sQuality : HighAdd ID3 tag : NoCommand line compressor : C:\Program Files\EAC\Exact Audio Copy\FLAC\flac.exeAdditional command line options : -V -8 -T "artist=%a" -T "title=%t" -T "album=%g" -T "date=%y" -T "tracknumber=%n" -T "genre=%m" %s

TOC of the extracted CD

Track | Start | Length | Start sector | End sector --------------------------------------------------------- 1 | 0:00.00 | 2:07.45 | 0 | 9569 2 | 2:07.45 | 2:17.17 | 9570 | 19861 3 | 4:24.62 | 3:51.33 | 19862 | 37219 4 | 8:16.20 | 3:18.00 | 37220 | 52069 5 | 11:34.20 | 1:00.27 | 52070 | 56596 6 | 12:34.47 | 4:48.20 | 56597 | 78216 7 | 17:22.67 | 2:00.23 | 78217 | 87239 8 | 19:23.15 | 2:34.67 | 87240 | 98856 9 | 21:58.07 | 5:24.43 | 98857 | 123199 10 | 27:22.50 | 3:31.35 | 123200 | 139059 11 | 30:54.10 | 4:22.40 | 139060 | 158749 12 | 35:16.50 | 2:23.02 | 158750 | 169476 13 | 37:39.52 | 2:47.18 | 169477 | 182019 14 | 40:26.70 | 3:48.42 | 182020 | 199161 15 | 44:15.37 | 1:19.33 | 199162 | 205119

Track 1

Filename E:\FLAC\Shudder To Think - High Art Music From The Motion Picture Soundtrack\01 - Opening.wav

Pre-gap length 0:00:02.00

Peak level 65.9 % Track quality 100.0 % Test CRC 57AE7ACC Copy CRC 57AE7ACC Track not present in AccurateRip database Copy OK

Track 2

Filename E:\FLAC\Shudder To Think - High Art Music From The Motion Picture Soundtrack\02 - Dominoes.wav

Peak level 99.9 % Track quality 100.0 % Test CRC 0B535A07 Copy CRC 0B535A07 Track not present in AccurateRip database Copy OK

Track 3

Filename E:\FLAC\Shudder To Think - High Art Music From The Motion Picture Soundtrack\03 - Cocoa Butter.wav

Peak level 97.3 % Track quality 99.9 % Test CRC E26FB377 Copy CRC E26FB377 Track not present in AccurateRip database Copy OK

Track 4

Filename E:\FLAC\Shudder To Think - High Art Music From The Motion Picture Soundtrack\04 - Mom's Mercedes.wav

Peak level 99.2 % Track quality 100.0 % Test CRC AC17D6A6 Copy CRC AC17D6A6 Track not present in AccurateRip database Copy OK

Track 5

Filename E:\FLAC\Shudder To Think - High Art Music From The Motion Picture Soundtrack\05 - Photographic Ecstasy.wav

Peak level 73.4 % Track quality 100.0 % Test CRC E3D72230 Copy CRC E3D72230 Track not present in AccurateRip database Copy OK

Track 6

Filename E:\FLAC\Shudder To Think - High Art Music From The Motion Picture Soundtrack\06 - The Gavia (performed by Reservoir).wav

Peak level 88.7 % Track quality 100.0 % Test CRC 03E3BE54 Copy CRC 03E3BE54 Track not present in AccurateRip database Copy OK

Track 7

Filename E:\FLAC\Shudder To Think - High Art Music From The Motion Picture Soundtrack\07 - Neotony.wav

Peak level 64.9 % Track quality 100.0 % Test CRC 67326633 Copy CRC 67326633 Track not present in AccurateRip database Copy OK

Track 8

Filename E:\FLAC\Shudder To Think - High Art Music From The Motion Picture Soundtrack\08 - ph Balanced (for a lady).wav

Peak level 98.1 % Track quality 100.0 % Test CRC 25F30B99 Copy CRC 25F30B99 Track not present in AccurateRip database Copy OK

Track 9

Filename E:\FLAC\Shudder To Think - High Art Music From The Motion Picture Soundtrack\09 - Battle Soaked (Amnesian Mix).wav

Peak level 99.9 % Track quality 100.0 % Test CRC E696BF46 Copy CRC E696BF46 Track not present in AccurateRip database Copy OK

Track 10

Filename E:\FLAC\Shudder To Think - High Art Music From The Motion Picture Soundtrack\10 - That's Fat (performed by jeepjazz Project).wav

Peak level 93.2 % Track quality 100.0 % Test CRC 01F8A1D7 Copy CRC 01F8A1D7 Track not present in AccurateRip database Copy OK

Track 11

Filename E:\FLAC\Shudder To Think - High Art Music From The Motion Picture Soundtrack\11 - She Gives Tone.wav

Pre-gap length 0:00:03.05

Peak level 57.3 % Track quality 100.0 % Test CRC 8F37ED1C Copy CRC 8F37ED1C Track not present in AccurateRip database Copy OK

Track 12

Filename E:\FLAC\Shudder To Think - High Art Music From The Motion Picture Soundtrack\12 - Last Lines.wav

Peak level 59.7 % Track quality 100.0 % Test CRC 054EB378 Copy CRC 054EB378 Track not present in AccurateRip database Copy OK

Track 13

Filename E:\FLAC\Shudder To Think - High Art Music From The Motion Picture Soundtrack\13 - She Might Be Waking Up.wav

Peak level 89.0 % Track quality 100.0 % Test CRC 808A8F2E Copy CRC 808A8F2E Track not present in AccurateRip database Copy OK

Track 14

Filename E:\FLAC\Shudder To Think - High Art Music From The Motion Picture Soundtrack\14 - Fools.wav

Pre-gap length 0:00:01.58

Peak level 99.9 % Track quality 100.0 % Test CRC F3D38148 Copy CRC F3D38148 Track not present in AccurateRip database Copy OK

Track 15

Filename E:\FLAC\Shudder To Think - High Art Music From The Motion Picture Soundtrack\15 - End Frame.wav

Pre-gap length 0:00:01.45

Peak level 45.8 % Track quality 100.0 % Test CRC B47FE528 Copy CRC B47FE528 Track not present in AccurateRip database Copy OK

None of the tracks are present in the AccurateRip database

No errors occurred

End of status report
 
REM GENRE SoundtrackREM DATE 1998REM DISCID D20AAE0FREM COMMENT "ExactAudioCopy v0.99pb4"PERFORMER "Shudder To Think"TITLE "High Art - Music From the Motion Picture Soundtrack"FILE "01 - Opening.wav" WAVE TRACK 01 AUDIO TITLE "Opening" PERFORMER "Shudder To Think" INDEX 01 00:00:00FILE "02 - Dominoes.wav" WAVE TRACK 02 AUDIO TITLE "Dominoes" PERFORMER "Shudder To Think" INDEX 01 00:00:00FILE "03 - Cocoa Butter.wav" WAVE TRACK 03 AUDIO TITLE "Cocoa Butter" PERFORMER "Shudder To Think" INDEX 01 00:00:00FILE "04 - Mom's Mercedes.wav" WAVE TRACK 04 AUDIO TITLE "Mom's Mercedes" PERFORMER "Shudder To Think" INDEX 01 00:00:00FILE "05 - Photographic Ecstasy.wav" WAVE TRACK 05 AUDIO TITLE "Photographic Ecstasy" PERFORMER "Shudder To Think" INDEX 01 00:00:00FILE "06 - The Gavia (performed by Reservoir).wav" WAVE TRACK 06 AUDIO TITLE "The Gavia (performed by Reservoir)" PERFORMER "Shudder To Think" INDEX 01 00:00:00FILE "07 - Neotony.wav" WAVE TRACK 07 AUDIO TITLE "Neotony" PERFORMER "Shudder To Think" INDEX 01 00:00:00FILE "08 - ph Balanced (for a lady).wav" WAVE TRACK 08 AUDIO TITLE "ph Balanced (for a lady)" PERFORMER "Shudder To Think" INDEX 01 00:00:00FILE "09 - Battle Soaked (Amnesian Mix).wav" WAVE TRACK 09 AUDIO TITLE "Battle Soaked (Amnesian Mix)" PERFORMER "Shudder To Think" INDEX 01 00:00:00FILE "10 - That's Fat (performed by jeepjazz Project).wav" WAVE TRACK 10 AUDIO TITLE "That's Fat (performed by jeepjazz Project)" PERFORMER "Shudder To Think" INDEX 01 00:00:00 TRACK 11 AUDIO TITLE "She Gives Tone" PERFORMER "Shudder To Think" INDEX 00 03:28:30FILE "11 - She Gives Tone.wav" WAVE INDEX 01 00:00:00FILE "12 - Last Lines.wav" WAVE TRACK 12 AUDIO TITLE "Last Lines" PERFORMER "Shudder To Think" INDEX 01 00:00:00FILE "13 - She Might Be Waking Up.wav" WAVE TRACK 13 AUDIO TITLE "She Might Be Waking Up" PERFORMER "Shudder To Think" INDEX 01 00:00:00 TRACK 14 AUDIO TITLE "Fools" PERFORMER "Shudder To Think" INDEX 00 02:45:35FILE "14 - Fools.wav" WAVE INDEX 01 00:00:00 TRACK 15 AUDIO TITLE "End Frame" PERFORMER "Shudder To Think" INDEX 00 03:46:72FILE "15 - End Frame.wav" WAVE INDEX 01 00:00:00


Трекер:  [ 20-Дек-2010 12:30 ]

  

Скачать .torrent

Размер .torrent файла 18 KB


Размер: 219 MB
Хэш (hash) релиза: 55346302dd1e9c5ed8403e2cb2a5723d1d6c30dd

bot

Топик был перенесен в форум Саундтреки к фильмам и мультфильмам (lossless)

Перенес AqvaGen

Хотите добавить комментарий к записи скачать торрент Высокое искусство High Art

!Обратная связь